<?xml version="1.0" standalone="no"?>
<!DOCTYPE svg PUBLIC "-//W3C//DTD SVG 1.1//EN" "http://www.w3.org/Graphics/SVG/1.1/DTD/svg11.dtd" >
<svg>
<defs>
<font id="GrkV" horiz-adv-x="698" >
  <font-face 
    font-family="GrkV"
    font-weight="400"
    font-stretch="normal"
    units-per-em="1060"
    panose-1="2 11 6 4 2 2 2 2 2 4"
    ascent="848"
    descent="-212"
    x-height="476"
    cap-height="777"
    bbox="-544.059 -416.059 1002 819.029"
    underline-thickness="35"
    underline-position="-133"
    unicode-range="U+0020-2260"
  />
<missing-glyph horiz-adv-x="530" 
d="M66 0v800h398v-800h-398zM133 66h265v668h-265v-668z" />
    <glyph glyph-name=".notdef" horiz-adv-x="530" 
d="M66 0v800h398v-800h-398zM133 66h265v668h-265v-668z" />
    <glyph glyph-name=".null" horiz-adv-x="0" 
 />
    <glyph glyph-name="nonmarkingreturn" horiz-adv-x="303" 
 />
    <glyph glyph-name="space" unicode=" " horiz-adv-x="303" 
 />
    <glyph glyph-name="exclam" unicode="!" horiz-adv-x="599" 
d="M498 73q-78 -75 -184 -75q-112 0 -190.5 70.5t-79.5 173.5q-1 101 74 177t186 77q105 1 190 -71l-59 -47q-56 54 -129 55q-68 1 -127 -54t-60 -131q-1 -74 58.5 -128.5t130.5 -54.5q57 0 128 55z" />
    <glyph glyph-name="quotedbl" unicode="&#x22;" horiz-adv-x="393" 
d="M90 501l-35 208q-3 17 12 32t34 15t33.5 -15t11.5 -32l-35 -208h-21zM282 501l-35 208q-3 17 12 32t34 15t33.5 -15t11.5 -32l-35 -208h-21z" />
    <glyph glyph-name="numbersign" unicode="#" horiz-adv-x="555" 
d="M223 3q-69 0 -104 72q-21 44 -33 133l-19 140q-7 48 -25 60t-22 23q-5 19 12 39.5t53 20.5q24 0 47 -24q9 -9 19 -143q13 -154 15 -167q13 -71 41 -81q22 -8 45 -12q8 -1 28 -2q25 -1 64.5 13t54.5 119q6 40 9 142q2 74 7 94q13 61 58 62q32 1 49 -17t18 -37
q1 -17 -25 -30q-15 -8 -19 -23q-7 -29 -22 -164q-11 -101 -39.5 -159.5t-99.5 -58.5h-112zM128 554q0 20 16 36.5t37 16.5t37 -16.5t16 -36.5q0 -21 -16 -37t-37 -16t-37 16t-16 37zM445 554q0 -21 -16 -37t-37 -16t-37 16t-16 37q0 20 16 36.5t37 16.5t37 -16.5t16 -36.5z
" />
    <glyph glyph-name="dollar" unicode="$" horiz-adv-x="346" 
d="M172 345v-333q0 -39 1 -48q5 -30 23 -38t50 -8h35l5 -5v-25l-5 -4q-43 3 -97 4h-61q-9 -1 -21 -2.5t-15 -1.5l-5 4l6 178v279h84z" />
    <glyph glyph-name="percent" unicode="%" horiz-adv-x="933" 
d="M741 113q-121 -115 -274 -116q-165 -1 -277.5 109t-113.5 274q-1 173 108 285.5t282 113.5q179 1 284 -119l-55 -51q-27 38 -85 62q-63 26 -143 26q-153 1 -224 -83q-64 -77 -65 -234q-1 -143 73 -221.5t216 -79.5q141 -1 216 79z" />
    <glyph glyph-name="ampersand" unicode="&#x26;" 
d="M327 -64v-115q25 -7 30 -10q14 -6 23 -21q4 -4 -10 -10q-10 -1 -37 -6q-20 0 -44 6q-14 3 -33 14v142q0 12 37 12q34 0 34 -12zM561 0q-15 5 -33 33q-7 11 -39 27q-5 2 -22 4q-11 0 -62 -36q-40 -28 -116 -28q-224 0 -226 253q-1 111 65 179q62 64 185 65q82 1 123 -30
q45 -34 53 -34q4 0 21 10q7 8 33 31q15 8 33 20q4 3 27 3q28 0 32 -35q0 -6 -9 -12q-34 -17 -64 -54q-24 -30 -25 -143q0 -55 24.5 -110t66.5 -91q4 -3 4 -8q0 -10 -21 -27q-29 -24 -50 -17zM152 234q3 -45 20 -80t37 -53q8 -8 31 -21q31 -10 40 -10q95 0 132.5 56t40.5 140
q1 48 -30 94q-43 62 -114 63q-29 0 -74 -18q-27 -11 -44 -31q-36 -42 -39 -140z" />
    <glyph glyph-name="quotesingle" unicode="'" horiz-adv-x="255" 
d="M68 727q2 17 14 30.5t40 13.5q34 0 53 -38q10 -20 10 -49q-1 -11 -2 -35q-5 -26 -17 -49q-6 -12 -19 -18l-18 -6q-14 -7 -18 -7q-21 3 -26 10q-6 12 -6 20q7 -1 31 16q22 23 33 37q7 9 -18 33q-12 11 -34.5 17.5t-22.5 24.5z" />
    <glyph glyph-name="parenleft" unicode="(" horiz-adv-x="346" 
d="M276 -116q-216 170 -216 425t222 422l19 -23q-155 -152 -155 -391q0 -126 29 -210q17 -49 40 -87q17 -27 62 -86l24 -31z" />
    <glyph glyph-name="parenright" unicode=")" horiz-adv-x="346" 
d="M32 -97q154 169 155 414q1 180 -94 318q-26 38 -61 73l25 23q100 -77 157.5 -187t58.5 -235q1 -236 -222 -425z" />
    <glyph glyph-name="plus" unicode="+" horiz-adv-x="0" 
d="M-320 -64v-115q25 -7 30 -10q14 -6 23 -21q4 -4 -10 -10q-10 -1 -37 -6q-20 0 -44 6q-14 3 -33 14v142q0 12 37 12q34 0 34 -12z" />
    <glyph glyph-name="comma" unicode="," horiz-adv-x="277" 
d="M85 -130q27 11 57 47.5t30 62.5q0 16 -15 16q10 0 -34 -4q-56 5 -56 51q0 64 63 64q43 0 66 -34q18 -29 18 -70t-39.5 -89.5t-80.5 -65.5z" />
    <glyph glyph-name="hyphen" unicode="-" horiz-adv-x="346" 
d="M22 215l-5 5l27 67h263l5 -5l-30 -67h-260z" />
    <glyph glyph-name="period" unicode="." horiz-adv-x="260" 
d="M67 53q-1 22 17 40t40 18q24 0 41.5 -17t17.5 -41q0 -25 -17 -41t-42 -17q-24 -1 -40 16.5t-17 41.5z" />
    <glyph glyph-name="slash" unicode="/" horiz-adv-x="630" 
d="M153 -116h-72l372 847h72z" />
    <glyph glyph-name="zero" unicode="0" horiz-adv-x="500" 
d="M476 324q0 -145 -52 -235q-59 -104 -174 -104q-114 0 -174 103q-52 90 -52 236q0 150 51 243q61 110 175 110q113 0 173 -110q53 -96 53 -243zM376 324q0 173 -33 251t-91 78t-90 -73q-35 -82 -35 -256q0 -169 35 -247q31 -66 90 -66q58 0 88 66q36 79 36 247z" />
    <glyph glyph-name="one" unicode="1" horiz-adv-x="500" 
d="M400 0h-286v21q52 0 75.5 16t23.5 47v444q0 30 -7.5 41t-27.5 11q-14 0 -37 -5q-6 -2 -32 -9v12l186 95h8v-592q0 -28 23 -44t74 -16v-21z" />
    <glyph glyph-name="two" unicode="2" horiz-adv-x="500" 
d="M478 140l-48 -140h-407v13l118 118q85 85 132 157q65 97 65 173q0 62 -35 101.5t-88 39.5q-90 0 -139 -69q-15 -24 -29 -48l-24 11q41 90 88 132q52 45 124 45q75 0 128 -42q58 -47 58 -122q0 -73 -45 -153q-37 -66 -108 -144q-68 -69 -134 -138h215q26 0 43 3.5t29 14.5
q16 15 36 44q3 4 8 13z" />
    <glyph glyph-name="three" unicode="3" horiz-adv-x="500" 
d="M429 211q0 -98 -69.5 -160t-187.5 -62q-62 0 -89 9q-40 12 -40 42q0 37 42 37q21 0 67.5 -28t72.5 -28q63 0 97.5 42t34.5 108q0 34 -11.5 69t-38.5 56.5t-69.5 31t-90.5 9.5v12q42 4 79 24q20 11 46 34q18 18 29 40q15 31 15 66q0 42 -26.5 73t-71.5 31q-63 0 -109 -47
q-2 -2 -48 -64l-14 11q41 90 85 123t118 33q69 0 107 -36t38 -91q0 -52 -27 -91q-17 -25 -58 -57q56 -32 71 -48q48 -51 48 -139z" />
    <glyph glyph-name="four" unicode="4" horiz-adv-x="500" 
d="M469 160h-94v-160h-85v160h-271v65l313 448h43v-448h94v-65zM290 225v324l-234 -324h234z" />
    <glyph glyph-name="five" unicode="5" horiz-adv-x="500" 
d="M434 679l-47 -95h-208l-41 -90q44 -5 69 -11q74 -16 110 -41q56 -37 80 -79q28 -53 28 -147q0 -90 -66 -156q-73 -73 -188 -73q-64 0 -95 11q-44 15 -44 52q0 19 12.5 28.5t29.5 9.5q34 0 73 -33.5t77 -33.5q46 0 82 39q45 48 45 130q0 58 -29 103q-33 50 -105 84
q-28 13 -95 23q-21 3 -60 7l108 255h200q22 0 31.5 4t22.5 21z" />
    <glyph glyph-name="six" unicode="6" horiz-adv-x="500" 
d="M470 204q0 -84 -48 -147q-57 -74 -156 -74q-107 0 -170 80.5t-63 197.5q0 55 13 109q19 83 65 149q53 76 128 117q85 48 197 48v-17q-99 -20 -160 -69q-55 -44 -96 -126q-6 -15 -20 -53q-4 -13 -13 -36q30 25 68.5 36.5t65.5 11.5q87 0 138 -65t51 -162zM377 204
q0 89 -44 137q-37 41 -85 41q-32 0 -59 -8.5t-47 -29.5q-8 -12 -12.5 -40.5t-4.5 -63.5q0 -114 52 -176q42 -51 97 -51q49 0 76 44.5t27 146.5z" />
    <glyph glyph-name="seven" unicode="7" horiz-adv-x="500" 
d="M445 659l-201 -659h-69l185 595h-203q-21 0 -35 -4t-28 -14t-36 -40l-18 -27l-19 10l57 153h367v-14z" />
    <glyph glyph-name="eight" unicode="8" horiz-adv-x="500" 
d="M440 155q0 -72 -54 -122t-141 -50q-99 0 -151 60q-40 47 -40 106q0 48 24 86q32 49 111 96q-80 67 -88 76q-45 50 -45 118q0 66 54 109.5t135 43.5q85 0 133 -42q45 -39 45 -98q0 -50 -38 -97t-95 -67q81 -62 115.5 -110.5t34.5 -108.5zM348 538q0 59 -32 86t-82 27
q-39 0 -69 -28t-30 -76q0 -45 40 -90q33 -37 86 -68q17 12 26 20q61 55 61 129zM364 125q0 50 -44 100q-33 37 -107 88q-27 -24 -41 -41q-43 -53 -43 -110q0 -74 44 -115q36 -34 80 -34q50 0 78 24q33 29 33 88z" />
    <glyph glyph-name="nine" unicode="9" horiz-adv-x="500" 
d="M464 411q0 -55 -12 -109q-19 -83 -66 -149q-54 -77 -128 -118q-85 -48 -196 -48v18q98 20 160 70q53 44 94 126q6 15 20 52q4 13 13 36q-29 -25 -72 -39q-33 -10 -61 -10q-87 0 -137.5 65t-50.5 165q0 83 47 145q56 73 155 73q108 0 173 -82q61 -77 61 -195zM372 431
q0 115 -52 177q-42 52 -97 52q-49 0 -75 -42q-28 -48 -28 -148q0 -93 43 -140q36 -40 85 -40q28 0 57.5 9t49.5 27q9 13 13 41.5t4 63.5z" />
    <glyph glyph-name="colon" unicode=":" horiz-adv-x="260" 
d="M66 397q-1 23 16 41t40 19q24 1 42 -17.5t18 -42.5q0 -23 -16 -39t-39 -17q-24 -1 -42 15.5t-19 40.5z" />
    <glyph glyph-name="semicolon" unicode=";" horiz-adv-x="260" 
d="M89 397q-1 23 16 41t40 19q24 1 42.5 -17.5t19.5 -42.5q1 -23 -16.5 -39t-40.5 -17q-24 -1 -42 15.5t-19 40.5zM90 -104q21 16 37 31q37 35 40 56q-14 0 -30 3q-59 13 -59 60q0 34 28 49q18 10 34 10q32 0 54 -35q19 -30 19 -66q0 -13 -3 -22q-14 -43 -51 -67
q-33 -21 -69 -19z" />
    <glyph glyph-name="less" unicode="&#x3c;" horiz-adv-x="355" 
d="M314 0l-286 351v81l286 351v-93l-240 -298l240 -299v-93z" />
    <glyph glyph-name="equal" unicode="=" horiz-adv-x="610" 
d="M160 -229q0 -8 -11 -12q-5 -2 -39 -5q-17 0 -27 4t-12 13v470q0 44 17 102q19 69 47 89q10 9 32 27q52 40 136 41q79 1 116 -17q83 -40 117 -128q18 -47 18 -102q0 -111 -52.5 -181.5t-173.5 -71.5q-53 0 -94 15q-3 1 -74 41v-285zM440 375q-25 30 -58.5 46.5t-75.5 17.5
q-35 1 -69 -24q-53 -38 -71 -98q-7 -23 -8 -57q-1 -20 9.5 -64.5t33 -76.5t52.5 -43q41 -15 73 -16q129 -2 147 174q0 101 -33 141zM343 702q-24 -6 -36 -17q-25 -24 -18 -33q11 -14 33 -37q13 -13 31 -16q0 -8 -6 -20q-5 -7 -26 -10q-4 0 -18 7l-18 6q-13 6 -19 18
q-12 23 -17 49q-1 12 -2 35q0 56 35 78q15 9 28 9q28 0 40 -13.5t14 -30.5q0 -18 -21 -25z" />
    <glyph glyph-name="greater" unicode="&#x3e;" horiz-adv-x="355" 
d="M268 392l-241 298v93l287 -351v-81l-287 -351v93z" />
    <glyph glyph-name="at" unicode="@" horiz-adv-x="555" 
d="M223 3q-69 0 -104 72q-21 44 -33 133l-19 140q-7 48 -25 60t-22 23q-5 19 12 39.5t53 20.5q24 0 47 -24q9 -9 19 -143q13 -154 15 -167q13 -71 41 -81q22 -8 45 -12q8 -1 28 -2q25 -1 64.5 13t54.5 119q6 40 9 142q2 74 7 94q13 61 58 62q32 1 49 -17t18 -37
q1 -17 -25 -30q-15 -8 -19 -23q-7 -29 -22 -164q-11 -101 -39.5 -159.5t-99.5 -58.5h-112zM128 554q0 20 16 36.5t37 16.5t37 -16.5t16 -36.5q0 -21 -16 -37t-37 -16t-37 16t-16 37zM445 554q0 -21 -16 -37t-37 -16t-37 16t-16 37q0 20 16 36.5t37 16.5t37 -16.5t16 -36.5z
M261 578l55 192q6 22 35 25q21 0 37 -7.5t18 -33.5q1 -13 -4 -20l-113 -165z" />
    <glyph glyph-name="A" unicode="A" horiz-adv-x="806" 
d="M403 764h20l330 -764h-112l-107 278h-258l-118 -278h-111zM316 360h182l-85 242z" />
    <glyph glyph-name="B" unicode="B" horiz-adv-x="607" 
d="M128 446l246 -1q5 0 10 3.5t20 14.5q34 21 36 96q2 82 -45 121q-44 36 -156 36q-69 0 -111 -9v-100q0 -58 1 -101q0 -13 -1 -23v-37zM51 773q38 11 149 12q97 1 149 -8q75 -13 108 -44q30 -28 48 -87q16 -52 17 -105q1 -56 -23.5 -86.5t-62.5 -53.5q28 -17 68 -51
q45 -58 47 -151q2 -77 -27 -123q-9 -18 -40 -43t-67 -33q-4 -1 -84 -7q-47 -4 -87 -4q-120 -1 -195 17v767zM442 135q9 29 9 62q0 40 -9 74q-3 20 -37 58.5t-52 38.5h-221l1 -283q33 -10 72 -19q33 -4 65 -5q57 -1 88 5q67 13 84 69z" />
    <glyph glyph-name="C" unicode="C" horiz-adv-x="781" 
d="M672 763q-2 -183 -56 -248.5t-185 -96.5v279l16 80h-112l16 -80v-279q-137 30 -191 96t-55 241q0 19 -13 34t-36 15q-29 0 -29 -46q-1 -194 77 -289q93 -113 247 -113v-290l-10 -67h100l-10 67v290q136 0 235 105q79 84 80 299q0 18 -11 30.5t-46 12.5q-5 0 -5 -2
q-2 -6 -4 -8q-8 -9 -8 -30z" />
    <glyph glyph-name="D" unicode="D" horiz-adv-x="823" 
d="M642 67l-221 559l-240 -559h461zM38 0l355 764h51l330 -764h-736z" />
    <glyph glyph-name="E" unicode="E" horiz-adv-x="680" 
d="M87 739q0 30 32 31q14 1 41.5 -2.5t39.5 -3.5h388q18 0 18 -33q0 -14 -7 -29t-24 -26q-10 -7 -41 8t-43 16l-290 -1v-259h299q16 0 18 -49q1 -23 -7 -34q-4 -7 -14 -8h-297v-280h309l77 28q15 -2 25 -21q7 -15 7 -33q0 -19 -7 -31t-23 -12l-503 -1q7 78 9 238
q1 90 -3 251q-4 176 -4 251z" />
    <glyph glyph-name="F" unicode="F" horiz-adv-x="857" 
d="M382 137v519q-35 0 -73 -23q-24 -14 -79 -60q-87 -72 -89 -176q-1 -78 82 -169t159 -91zM480 767l-16 -60q89 -8 165 -52q59 -34 116 -96q61 -67 62 -162q1 -125 -113.5 -217t-229.5 -93l7 -77h-96l7 77q-149 13 -234 100q-61 62 -77 87q-29 49 -31 123q-3 113 122 218
q93 78 220 92l-16 60h114zM706 397q1 92 -82 172t-158 87v-519q56 0 147.5 79.5t92.5 180.5z" />
    <glyph glyph-name="G" unicode="G" horiz-adv-x="613" 
d="M171 -8q-51 0 -65.5 -5t-36.5 -18v801q0 24 8 24q23 -10 75 -24h418q2 -7 8 -22q2 -8 4 -27q0 -15 -5 -25q-8 -27 -41 -28q-28 -1 -65 25l-300 1v-702z" />
    <glyph glyph-name="H" unicode="H" horiz-adv-x="800" 
d="M76 766h104v-336h449v336h104v-766h-104v350h-449v-350h-104v766z" />
    <glyph glyph-name="I" unicode="I" horiz-adv-x="344" 
d="M237 0h-97v773q1 3 25 3q38 0 53 -1q-7 0 17 2l12 -4z" />
    <glyph glyph-name="J" unicode="J" horiz-adv-x="631" 
d="M68 362v65l318 269h-242q-8 0 -40 -19q-8 -5 -20 -5q-31 0 -42 16q-7 10 -8 31q-1 19 10 34q7 11 21 12h507q-51 -44 -148 -131q-48 -41 -135 -121q-34 -33 -100 -86h369q-68 -83 -190 -194q-83 -78 -175 -164h312q11 0 39.5 15t37.5 13q33 -6 33 -57q0 -40 -29 -40h-533
v69q53 37 159 131t174 162h-318z" />
    <glyph glyph-name="K" unicode="K" horiz-adv-x="707" 
d="M169 94q0 -30 19 -94q-23 -15 -103 -16q-31 -1 -32 14l1 788h116v-334h42l66 44q30 21 51 41q57 56 96 100l74 83q31 35 31 57v9h154l-110 -110q-42 -47 -152 -162q-52 -52 -149 -116q45 -31 117 -102q68 -66 216 -231q26 -29 47 -50q11 -9 29 -25h-151q0 3 -1 20
q-1 21 -87 107q-68 68 -137 133q-48 40 -108 94h-28z" />
    <glyph glyph-name="L" unicode="L" horiz-adv-x="845" 
d="M446 617q-23 -55 -83 -190q-125 -269 -185 -427q-13 0 -35 2h-79l357 762h48l330 -764h-99q-42 76 -88 194q-38 99 -76 199q-37 97 -90 224z" />
    <glyph glyph-name="M" unicode="M" horiz-adv-x="952" 
d="M108 769h156q20 -45 68 -147l82 -164q23 -49 73 -138q18 36 56 108l87 174q27 65 75 167h125q31 0 31 -2q9 -120 24 -389l7 -170q1 -58 10 -212h-92l-40 702l-283 -533l-287 533l-40 -697l-92 -3l16 305q3 62 9 189z" />
    <glyph glyph-name="N" unicode="N" horiz-adv-x="814" 
d="M84 771h139l415 -596v596h102v-763h-102l-456 663v-671h-98v771z" />
    <glyph glyph-name="O" unicode="O" horiz-adv-x="933" 
d="M466 779q168 1 280 -114t112 -284q0 -156 -117.5 -269.5t-273.5 -114.5q-165 -1 -277.5 109t-113.5 274q-1 173 108 285.5t282 113.5zM178 380q-1 -143 73 -221.5t216 -79.5t217 79q72 78 73 221q1 157 -65 234q-71 83 -225 84q-153 1 -224 -83q-64 -77 -65 -234z" />
    <glyph glyph-name="P" unicode="P" horiz-adv-x="886" 
d="M257 673q-2 -57 -5 -116q-1 -14 -2 -159q-1 -167 9 -273q2 -18 15 -62.5t13 -49.5q0 -4 -11 -15q-8 -7 -16 -15q-3 -3 -14 -3q-19 2 -23 2q-17 -1 -73 18v670h-16q-46 -24 -58 -26q-7 0 -18 11t-12 58q-1 40 33 45q17 2 79 4l80 2h36h107q17 0 126 1q50 0 198 -1
q76 -1 96 -3q33 -4 35 -52q1 -31 -8 -47q-7 -12 -19 -9q-27 12 -52 14q-11 0 -20 -6v-659q-12 -6 -32 -11q-12 -3 -62 -5q-37 -1 -41 35q0 16 11.5 53.5t13.5 53.5q6 62 8 258q1 157 1 169q-3 39 -7 115q0 3 -102 3h-270z" />
    <glyph glyph-name="Q" unicode="Q" horiz-adv-x="856" 
d="M703 -193q-8 103 -42 235q-33 128 -63 186q-33 -25 -208 -162q-40 -31 -77 -63q-13 18 -39 56q17 16 92 74l202 155q-8 30 -61 94.5t-65 55.5q-29 -29 -191 -151q-40 -30 -91 -71q-1 2 -19 24t-20 32q33 31 187 151q33 26 89 69q-65 57 -167 103q-29 14 -183 74l-1 87
q232 -61 396 -193q179 -142 259 -353q69 -183 71 -402z" />
    <glyph glyph-name="R" unicode="R" horiz-adv-x="611" 
d="M172 0h-100l1 710q0 23 -1 33v29q35 12 151 13q96 1 186 -20q60 -14 79 -32q65 -62 67 -214q1 -63 -70 -116q-18 -17 -48 -39q-59 -20 -265 -18v-346zM172 439q115 2 234 7q5 3 19 14q13 8 25 39q10 26 11 60q1 32 -12 70q-10 29 -33 48q-44 36 -156 36q-32 0 -66 -3
q-4 -2 -22 -6v-265z" />
    <glyph glyph-name="S" unicode="S" horiz-adv-x="780" 
d="M64 766h626v-129l-52 48h-385l317 -291l-331 -318h395l56 53v-129l-640 -1l404 396l-324 278z" />
    <glyph glyph-name="T" unicode="T" horiz-adv-x="744" 
d="M62 768h628v-123l-80 48h-185v-557q0 -35 20.5 -74.5t24.5 -53.5h-192q43 86 43 126v559h-178l-81 -48v123z" />
    <glyph glyph-name="U" unicode="U" horiz-adv-x="845" 
d="M172 779l253 -331l255 331h125l-325 -399v-372h-108v372l-326 399h126z" />
    <glyph glyph-name="V" unicode="V" horiz-adv-x="1070" 
d="M274 0q-199 26 -202 305v29q0 131 71 304q53 130 97 131q24 1 34.5 -5.5t23.5 -20.5q-39 -66 -72 -152q-36 -94 -44 -161q-9 -80 -10 -123q-1 -109 23 -156q33 -65 65 -73q25 -7 45 -10q36 0 109 33t73 69v262q0 12 10 18q7 4 41 7q31 0 42 -10q6 -5 7 -15v-262
q0 -41 58 -68q69 -32 125 -34h-7q15 2 54 11q34 10 67 72q15 27 17 71q1 9 1 86v41q-2 11 -11 85q-10 80 -45 162q-5 11 -70 147q0 5 10 11l14 8q4 3 34 7q47 0 104 -148q47 -124 55 -195q9 -83 9 -123q0 -93 -37 -179q-45 -108 -125 -118q-30 -4 -67 -8q-86 0 -152 41.5
t-80 67.5q-6 -21 -85 -65q-75 -41 -161 -43q-12 0 -21 1z" />
    <glyph glyph-name="W" unicode="W" horiz-adv-x="514" 
d="M109 432q23 35 66 54q23 10 132 30q67 0 145 1q11 2 20 -12q6 -13 7 -30t-6.5 -32.5t-22.5 -13.5q-21 4 -64 8q-13 0 -42 1.5t-43 1.5q-58 0 -83 -18q-48 -34 -74 -97q-2 -6 -7 -61h87q32 0 66 1q51 0 62 -3q15 -15 17 -43q1 -21 -24 -38h-210q0 -47 -1 -117v-216
q0 -52 3 -88q0 -6 -19 -14q-5 -2 -24 -5q-42 -2 -49 14q-1 3 -1 8v97v89q0 73 1 90q0 32 1 111q-1 44 4 140q6 54 20 81q19 31 39 61z" />
    <glyph glyph-name="X" unicode="X" horiz-adv-x="781" 
d="M389 356l-199 -283l-16 -67h-135l73 88l226 314l-197 273l-79 98h120q0 -13 1 -17.5t13 -32.5l192 -275l190 275q7 19 24 51h109l-80 -107l-195 -265l227 -314l75 -88h-134l-20 67q-31 53 -96 142q-72 97 -99 141z" />
    <glyph glyph-name="Y" unicode="Y" horiz-adv-x="903" 
d="M253 429l-39 -84h400l41 84h-402zM433 779q168 1 280 -114t112 -284q0 -156 -117.5 -269.5t-273.5 -114.5q-165 -1 -277.5 109t-113.5 274q-1 173 108 285.5t282 113.5zM145 380q-1 -143 73 -221.5t216 -79.5t217 79q72 78 73 221q1 157 -65 234q-71 83 -225 84
q-153 1 -224 -83q-64 -77 -65 -234z" />
    <glyph glyph-name="Z" unicode="Z" horiz-adv-x="633" 
d="M205 76h329l56 37v-113l-549 -2q11 21 33.5 54.5t25.5 41.5l345 591h-316q-29 -10 -41 -17q-6 -3 -22 -8v106h524l-54 -110z" />
    <glyph glyph-name="bracketleft" unicode="[" horiz-adv-x="265" 
d="M64 -190v873h185v-69h-102v-734h102v-70h-185z" />
    <glyph glyph-name="backslash" unicode="\" horiz-adv-x="630" 
d="M153 731l372 -731h-72l-372 731h72z" />
    <glyph glyph-name="bracketright" unicode="]" horiz-adv-x="265" 
d="M204 -190h-186v70h101v734h-101v69h186v-873z" />
    <glyph glyph-name="underscore" unicode="_" horiz-adv-x="346" 
d="M88 549l-6 178l5 4q56 -4 97 -4h65l32 4l5 -4v-25l-5 -5h-35q-48 0 -62 -14q-7 -6 -9 -18q0 -19 -1.5 -58t-1.5 -58v-537q0 -39 1 -48q5 -30 23 -38t50 -8h35l5 -5v-25l-5 -4q-43 3 -97 4h-61q-9 -1 -21 -2.5t-15 -1.5l-5 4l6 178v483zM229 -95v799h11v-799h-11z" />
    <glyph glyph-name="grave" unicode="`" horiz-adv-x="0" 
d="M-490 -310q24 0 39 -16q12 -17 13 -38q1 -23 -14.5 -37t-39.5 -15q-22 -1 -36.5 15t-15.5 39t15 37.5t39 14.5zM0 0z" />
    <glyph glyph-name="a" unicode="a" 
d="M560 0q-15 5 -33 33q-7 11 -39 27q-5 2 -22 4q-11 0 -62 -36q-40 -28 -116 -28q-224 0 -226 253q-1 111 65 179q62 64 185 65q82 1 123 -30q45 -34 53 -34q4 0 21 10q7 8 33 31q15 8 33 20q4 3 27 3q28 0 32 -35q0 -6 -9 -12q-34 -17 -64 -54q-24 -30 -25 -143
q0 -55 24.5 -110t66.5 -91q4 -3 4 -8q0 -10 -21 -27q-29 -24 -50 -17zM151 234q3 -45 20 -80t37 -53q8 -8 31 -21q31 -10 40 -10q95 0 132.5 56t40.5 140q1 48 -30 94q-43 62 -114 63q-29 0 -74 -18q-27 -11 -44 -31q-36 -42 -39 -140z" />
    <glyph glyph-name="b" unicode="b" horiz-adv-x="642" 
d="M489 702q26 -37 26 -71q0 -18 -2.5 -29.5t-6 -36t-39.5 -90.5q-6 -8 -15 -25q26 -2 48 -22q72 -64 86 -125q9 -39 10 -96q1 -87 -79 -161q-48 -45 -179 -46q-32 0 -96 26q-67 28 -91 29q3 0 0 -1q-4 0 -5 -20q-1 -15 16 -120q16 -101 16 -111q0 -19 -9 -28
q-34 -24 -59 -28q-5 0 -20 15q-25 31 -27 232v65v33q1 22 1 34v350q0 98 5 128q10 71 52 114q39 41 95 54q35 8 110 9q68 1 98 -14t65 -65zM324 728q-35 1 -67 -8q-6 -2 -47 -17q-24 -21 -48 -59q-19 -30 -19 -75l-1 -357q0 -64 69 -101q76 -41 148 -42q167 -2 169 150
q0 42 -6 62q-15 46 -71 80q-32 20 -81 25q-9 0 -71 -16l-63 -14q-15 12 -21 19q-10 12 -11 25q0 20 86 40q74 17 77 18q36 15 52 57q18 47 18 81q0 4 -8 40q-20 90 -105 92z" />
    <glyph glyph-name="c" unicode="c" horiz-adv-x="718" 
d="M324 -229v226q-76 14 -121 38q-55 29 -92 86q-82 125 -82 308q0 21 10 34q8 10 34 13q17 0 27 -13.5t10 -39.5q1 -93 12 -140q28 -120 113 -188q42 -34 88 -34v396q0 7 10.5 14t33.5 7q38 0 38 -21v-396q45 0 88 34q93 74 115 203q9 52 10 125q0 26 9 38t35 15
q17 0 27 -13t10 -34q1 -87 -19 -166q-19 -73 -59 -136q-49 -76 -108 -98q-48 -18 -109 -32v-226q0 -8 -13 -15q-8 -5 -37 -5q-11 0 -20.5 6.5t-9.5 13.5z" />
    <glyph glyph-name="d" unicode="d" horiz-adv-x="565" 
d="M228 788q56 -11 85 -22q50 -18 128 -63q9 -6 39 -24q-5 -26 -25 -52l-37 17q-87 40 -119 54q-53 23 -76.5 28t-43.5 7q-9 0 -24.5 -8t-12.5 -18q20 -42 77 -116q46 -59 78 -78q43 -24 87 -49q139 -95 140 -228q1 -116 -62.5 -174.5t-169.5 -59.5q-114 -1 -178 60t-64 174
q0 74 22 120q18 39 74 96q35 36 37 46q0 15 -32 48t-65.5 85t-34.5 91q-1 42 59 63q20 7 50 8q38 1 68 -5zM130 236q-1 -79 44 -123q35 -34 97 -46q9 -2 54 5q51 8 81 42q40 46 41 100q1 55 -41 125q-27 45 -70 70q-12 7 -20.5 9t-16.5 1q-13 -1 -14 -1q-21 0 -24.5 -1
t-22.5 -6q-40 -6 -70 -57q-37 -63 -38 -118z" />
    <glyph glyph-name="e" unicode="e" horiz-adv-x="420" 
d="M94 247q-2 14 -22 59q-17 39 -17 78q0 63 63 92q47 21 118 21h46q31 0 41 -6q17 -8 31 -18t15 -34q1 -23 -18 -33q-5 -1 -13 -3q-2 0 -34 17q-25 14 -53 14q-46 1 -64 -4q-35 -9 -53 -48q-6 -19 -7 -36q-1 -25 8 -44q12 -23 35 -23h153q23 0 24 -28q1 -19 -9 -25
q-1 -1 -17 -5h-161q-8 0 -20.5 -18.5t-12.5 -46.5q0 -44 29 -67q6 -6 24 -15q21 -4 72 -5q39 -1 56 8q20 16 31 24q33 7 35 -37q1 -20 -29 -40l-3 -2q-26 -17 -31.5 -19t-76.5 -3t-118 23q-60 30 -61 94q-1 38 10 68q5 13 29 62z" />
    <glyph glyph-name="f" unicode="f" horiz-adv-x="669" 
d="M389 442q-19 -105 -19 -190q0 -164 14 -186q6 -9 21 -11q5 0 24 5q38 10 58 27q15 13 41 53q33 51 33 89q0 43 -26.5 99.5t-60.5 80.5q-17 13 -50 31q-7 2 -23 6q-9 0 -12 -4zM293 -229v231q-34 3 -66.5 6.5t-64.5 22.5q-54 32 -86.5 85.5t-32.5 114.5q0 65 51 155
q55 97 114 105q27 3 71 8q17 0 52 1h43q28 0 85 -8q64 -9 120 -104q50 -87 51 -157q1 -60 -32.5 -113.5t-86.5 -86.5q-30 -18 -63.5 -22t-67.5 -7v-231q0 -22 -43 -26q-26 0 -37 10q-6 5 -7 16zM155 358q-7 -12 -14 -25q-28 -56 -29 -104q-1 -32 29 -84.5t58 -67.5
q14 -7 45 -17q7 -2 25 -5q13 0 18 8q16 32 16 189q0 106 -19 190q-1 3 -13 4q-1 0 -21 -8q-55 -16 -95 -80z" />
    <glyph glyph-name="g" unicode="g" horiz-adv-x="678" 
d="M338 194q3 -6 11 -4q5 0 10 5q59 110 120 188q58 75 99 87q15 4 46 13q27 0 35 -6.5t10 -18.5q0 -20 -51 -55q-61 -42 -150 -178q-77 -119 -114 -208q-14 -107 -32 -161q-34 -109 -95 -110q-31 -1 -38 21q-5 15 -5 38q0 15 6 44q4 21 36 63q34 47 43 72q13 37 14 77
q1 33 -7 59q-4 21 -15 65q-23 103 -91 160q-96 40 -144 61q-3 3 -4 14q0 14 11 40t23 26q128 0 182.5 -81t99.5 -211zM293 153z" />
    <glyph glyph-name="h" unicode="h" horiz-adv-x="597" 
d="M321 496q82 1 134 -27q57 -31 60 -79q2 -28 5 -90q3 -93 5 -324v-144q0 -10 -12 -17q-8 -4 -35 -7q-19 0 -31.5 7t-12.5 17l8 288q2 116 2 176v87q0 25 -49 43q-39 13 -71 14q-26 0 -81.5 -19.5t-54.5 -42.5q2 -19 4 -62q4 -98 5 -217l1 -95q0 -5 -12 -11q-2 -1 -40 -4
q-20 0 -32.5 4t-12.5 13l10 405q1 15 -19 24q-16 7 -33 8q-9 0 -39 -17q0 4 -3 19q27 48 57 51q13 0 41.5 -17t49.5 -15q24 2 75 17q47 15 81 15z" />
    <glyph glyph-name="i" unicode="i" horiz-adv-x="274" 
d="M180 104q6 -22 33 -41q13 -9 28 -24q0 -20 -28 -35q-24 -13 -64 -14t-50 84q-4 30 -5 119v56q0 -9 1 57q1 62 -4 97q-8 21 -19 65q0 11 17 17q20 3 31 6.5t18 3.5q16 0 23 -12.5t10 -17t5 -56.5q1 -35 1 -81v-181q0 -33 3 -43z" />
    <glyph glyph-name="j" unicode="j" horiz-adv-x="537" 
d="M301 760q68 1 117 -10q45 -10 45 -44q0 -11 -6.5 -24t-51.5 -14q-27 -1 -68 3t-67 8q-43 0 -82 -21t-39 -97q0 -34 30 -72.5t63 -38.5h152q9 -18 9 -30q0 -9 -2 -14.5t-7 -12.5h-154q-30 0 -67 -89q-35 -81 -35 -119q-1 -63 21 -88t55 -25q26 0 76.5 8.5t75.5 8.5
q54 0 90.5 -50t37.5 -117q0 -24 -59 -63q-41 -25 -83 -50q-45 -29 -68 -42q-27 -15 -66 -17q-5 0 -11 9q-2 6 -4 22q0 33 30 56q27 20 61 23q57 5 110 44q27 20 28 43q1 27 -19.5 49t-46.5 23q-6 0 -38 -7t-40 -8q-29 -3 -79 -3q-19 0 -31 1q-18 1 -47 4q-41 5 -68 74
q-20 55 -21 105q-1 65 38 120l63 90q6 10 6 18q0 6 -20 27q-25 27 -38 50q-20 39 -20 85q0 83 76 136q68 48 154 49z" />
    <glyph glyph-name="k" unicode="k" horiz-adv-x="504" 
d="M150 298q4 3 18 12q23 11 89 63l93 73q30 22 43 31q32 21 47 23q22 0 26.5 -12.5t3.5 -19.5q-4 -23 -176 -138q-58 -39 -70 -57q20 -37 128 -124l113 -92q16 -16 19 -38q0 -8 -5 -13l-13 -13q-1 0 -23 -8q-14 0 -114 87q-66 57 -119 102q-25 26 -60 58l6 -163
q15 -19 34 -57q0 -8 -23.5 -14.5t-64.5 -7.5q-31 -1 -32 14v380q0 14 -9 42t-9 37q0 19 17 33q11 9 35 9q27 0 42 -36q5 -11 8 -37q0 -21 1 -25q0 -19 -2 -55q-1 -17 -3 -54z" />
    <glyph glyph-name="l" unicode="l" horiz-adv-x="594" 
d="M72 739q0 31 49 42q15 3 36 3q61 1 94 -29q29 -27 48 -94l29 -105l89 -222q46 -115 66 -157q36 -78 82 -148q9 -14 -10 -23.5t-60 -10.5q-44 -1 -72 56q-10 21 -31 94q-17 63 -50 179q-15 48 -29 49q-5 0 -19 -16q-33 -38 -73 -135q-21 -63 -75 -185q-25 -45 -61 -36
q-45 11 -45 35q0 5 44 74q48 75 52 84q33 68 68 160l38 101q4 10 5 51t-11 98q-14 65 -33 92q-15 21 -29 21q3 0 -41 -14q-16 -3 -38 -6q-23 0 -23 42z" />
    <glyph glyph-name="m" unicode="m" horiz-adv-x="595" 
d="M71 470q-3 12 10.5 18t40.5 7q25 1 42 -6q14 -6 14 -17q-9 -48 -12 -97t-4 -97q-2 -117 16 -129q0 -44 45 -72q39 -24 86 -24q29 0 70 32t41 66v321q0 9 12 15.5t36 6.5q21 0 33 -5.5t10 -16.5q-9 -60 -13 -112q-4 -45 -5 -134q-1 -91 15 -134q7 -18 40 -60
q18 -23 19 -35q0 -24 -27 -27q-39 0 -68 29q-2 1 -44 54l-54 -39q-22 -11 -68 -11q-56 0 -81 6q-17 4 -57 29q-1 -3 -3.5 -12.5t-3.5 -33.5q-1 -26 11 -66l17 -58q3 -6 -16 -12t-53 -6q-33 0 -33 10v522q0 43 -16 88z" />
    <glyph glyph-name="n" unicode="n" horiz-adv-x="532" 
d="M60 496q6 6 30 6q45 0 94 -42l53 -377q45 23 102 124q36 64 44 91q5 16 18 91q0 34 -31.5 49t-30.5 26q2 37 59 38q51 1 74 -25t24 -75q1 -35 -24 -126q-15 -56 -76 -141q-63 -88 -111 -113q-23 -12 -62 -23q-6 0 -19 -2q-22 0 -33 1q-3 0 -12 13.5t-21 104.5
q-7 56 -14 113q-7 50 -13 84q-12 72 -20 80q-2 4 -31 23q-25 17 -26 35t26 45z" />
    <glyph glyph-name="o" unicode="o" horiz-adv-x="599" 
d="M304 496q110 1 189.5 -70.5t80.5 -173.5t-74.5 -178t-185.5 -76q-112 0 -190.5 70.5t-79.5 173.5q-1 101 74 177t186 77zM119 248q-1 -74 58.5 -128.5t130.5 -54.5q68 0 127 54.5t60 130.5q1 72 -59 127t-130 56q-68 1 -127 -54t-60 -131z" />
    <glyph glyph-name="p" unicode="p" horiz-adv-x="734" 
d="M664 496q19 0 35 -14t16 -33q0 -13 -8.5 -23.5t-51.5 -11.5q-22 -1 -45 2q-12 1 -35 5q-12 -21 -12 -136q0 -110 11 -177q9 -49 25 -71q12 -16 12 -26l-2 -11q-3 -15 -50 -17q-30 -1 -52 5.5t-22 15.5v417h-180v-416q0 -6 -14 -10q-20 -5 -38 -6q-27 -1 -43 9q-4 2 -5 7
q13 112 15 201q-1 35 2 105q0 84 -24 110q-1 1 -7 1q-13 0 -51 -7q-23 -4 -68 -11h-10q-8 2 -14.5 3.5t-7.5 14.5q0 15 15.5 32t30.5 25q33 17 105 17h473z" />
    <glyph glyph-name="q" unicode="q" horiz-adv-x="599" 
d="M110 248q-1 -76 60 -130q58 -53 135 -53q76 0 134 54.5t59 130.5q1 74 -59.5 128t-135.5 55q-76 1 -134 -54.5t-59 -130.5zM47 242q-1 104 74.5 178.5t179.5 75.5t183.5 -70t80.5 -174q1 -82 -74 -159q-68 -70 -152 -94v-226q0 -8 -10 -14t-25 -6q-30 0 -30 20v226
q-89 22 -154 86q-72 71 -73 157z" />
    <glyph glyph-name="r" unicode="r" horiz-adv-x="610" 
d="M160 -229q0 -8 -11 -12q-5 -2 -39 -5q-17 0 -27 4t-12 13v470q0 44 17 102q19 69 47 89q10 9 32 27q52 40 136 41q79 1 116 -17q83 -40 117 -128q18 -47 18 -102q0 -111 -52.5 -181.5t-173.5 -71.5q-53 0 -94 15q-3 1 -74 41v-285zM440 375q-25 30 -58.5 46.5t-75.5 17.5
q-35 1 -69 -24q-53 -38 -71 -98q-7 -23 -8 -57q-1 -20 9.5 -64.5t33 -76.5t52.5 -43q41 -15 73 -16q129 -2 147 174q0 101 -33 141z" />
    <glyph glyph-name="s" unicode="s" horiz-adv-x="603" 
d="M261 495q19 0 67 1q7 0 45 -1h48h38q18 0 48 1q24 1 40 -1q13 0 28 -6q7 -14 7 -39q0 -24 -28 -24q-21 0 -61 11q-8 2 -61 11q3 0 3 -4t5 -10q8 -14 37 -44q26 -26 34 -48q10 -31 15 -57q2 -20 8 -57q0 -22 -8 -62q0 -34 -42 -87q-35 -43 -79.5 -61.5t-134.5 -18.5
q-84 0 -148 47q-70 50 -79 131q-3 27 -6 62v14q0 38 9 66q4 11 27 61q19 41 60 72q54 41 128 43zM120 214q9 -71 57.5 -111.5t100.5 -41.5q69 -1 124 40q52 39 53 130q1 80 -46.5 140.5t-107.5 60.5q-51 0 -83 -14q-55 -24 -85 -96q-15 -36 -15 -79q0 -3 1 -16q0 -5 1 -13z
" />
    <glyph glyph-name="t" unicode="t" horiz-adv-x="602" 
d="M189 495h372q30 0 30 -28q0 -13 -6.5 -25t-17.5 -24q-74 15 -119 16q-32 1 -55 -8q-8 -2 -16 -4.5t-10 -10.5q-7 -22 -9 -117v-55q0 -109 12 -139.5t63 -40.5q3 0 3 -8q0 -47 -52 -49q-28 -1 -50 3q-35 7 -46 38q-6 17 -6 64v75q0 116 -6 169q-5 42 -18 65q-7 13 -18 16
q-2 0 -25 1q-31 1 -36 -1q-11 -3 -55 -20q-35 -14 -54 -16q-6 0 -15 7.5t-11 8.5q-8 5 -8 14q13 76 84 78q9 0 43 -5q23 -3 26 -4z" />
    <glyph glyph-name="u" unicode="u" horiz-adv-x="555" 
d="M223 3q-69 0 -104 72q-21 44 -33 133l-19 140q-7 48 -25 60t-22 23q-5 19 12 39.5t53 20.5q24 0 47 -24q9 -9 19 -143q13 -154 15 -167q13 -71 41 -81q22 -8 45 -12q8 -1 28 -2q25 -1 64.5 13t54.5 119q6 40 9 142q2 74 7 94q13 61 58 62q32 1 49 -17t18 -37
q1 -17 -25 -30q-15 -8 -19 -23q-7 -29 -22 -164q-11 -101 -39.5 -159.5t-99.5 -58.5h-112z" />
    <glyph glyph-name="v" unicode="v" horiz-adv-x="928" 
d="M505 263q0 -7 -1 -13v-11q0 -104 28 -138q12 -6 47 -25q30 -18 68 -18q25 0 42 2q28 3 56 38t34 59q5 31 9 62q0 10 1 14q0 86 -49 129q-35 30 -130 59q-28 19 -28 34q0 6 5 10.5t20.5 7.5t43.5 3q100 0 164.5 -65.5t64.5 -190.5q0 -141 -63.5 -191t-186.5 -51
q-31 0 -80 24q-25 16 -83 50q-30 -18 -91 -52q-43 -21 -96 -22q-230 -3 -232 242q-1 127 63 190t167 66q23 1 48 -4q19 -3 20 -17q0 -15 -28 -34q-102 -32 -141 -74q-42 -46 -38 -114l2 -35q3 -50 42 -100q26 -33 62 -36q9 -2 28 -4q33 0 66 14q19 5 52 24q31 33 31 151v16
q0 4 10 7q9 0 28 2q27 0 36 -1t9 -8z" />
    <glyph glyph-name="w" unicode="w" horiz-adv-x="454" 
d="M159 470q82 17 161 17q29 0 44 -5q8 -3 16 -17q5 -11 7 -28q0 -14 -9 -20q-7 -2 -22 -4q-10 0 -31 -1q-1 0 -45 1l-50 1q-23 1 -53 -3q-48 -6 -48 -94q0 -90 99 -168q33 -25 65 -50q49 -39 54 -55.5t5 -45.5v-28q0 -31 -24 -54q-10 -10 -51 -36q-99 -63 -134 -63
q-34 0 -35 30q-1 35 32 52q15 7 51 13q40 6 62 29t23 48q1 15 -8 28q-4 8 -21 26q-24 25 -84 68q-51 37 -71 66q-30 44 -31 111q-1 161 98 182z" />
    <glyph glyph-name="x" unicode="x" horiz-adv-x="648" 
d="M349 233q21 0 38 19q13 14 40 61l88 152q12 15 27 24t41 9q18 0 30 -13t8 -30q-7 -29 -66 -95l-112 -127q-54 -61 -52 -77q4 -37 69 -126q39 -54 113 -152q51 -21 61 -37q6 -12 6 -20q0 -39 -20 -47q-10 -4 -31 -5q-28 -1 -48 3q-14 3 -30.5 22.5t-63.5 116.5
q-57 119 -65 133q-24 44 -43 44q-30 1 -75 -74q-36 -65 -73 -130q-59 -99 -86 -106q-10 -3 -52 -8q-22 0 -23 19q-1 31 90 151l104 136q47 62 49 73q0 108 -95 214q-25 28 -38 35q-16 9 -48 9h-23q-20 0 -23 7q-13 27 -14 47q-1 29 30 34q9 1 27 4q4 0 11.5 0.5t11.5 1.5
q31 0 43 -4q54 -18 120 -155q52 -109 74 -109z" />
    <glyph glyph-name="y" unicode="y" horiz-adv-x="512" 
d="M261 777q64 -1 100 -28q31 -23 59 -82q51 -109 51 -264q0 -186 -37 -269q-31 -70 -90 -107q-28 -18 -86 -19q-44 -1 -86 28q-65 45 -90 129t-26 243q-1 166 54 268.5t151 100.5zM168 629q-11 -25 -20.5 -67.5t-10.5 -78.5q-1 -16 4 -22q34 -2 100 -3l137 -1q12 0 12 28
q0 63 -35 147q-12 30 -40 57q-32 30 -60 31q-20 0 -44 -25.5t-43 -65.5zM268 80q17 -3 41 8q49 22 67 123q12 66 12 121q0 40 -13 46q-19 9 -58 14q-31 4 -89 4q-54 0 -82 -21q-3 -3 -4 -53q-1 -49 10 -104q12 -66 35.5 -96.5t80.5 -41.5z" />
    <glyph glyph-name="z" unicode="z" horiz-adv-x="505" 
d="M483 -76q0 -25 -40 -53q-57 -36 -174 -105q-25 -14 -55 -17q-17 0 -17 20q-1 60 55 80q61 15 72 19q40 12 68.5 32t29.5 50q1 39 -41 61q-10 5 -25 7l-48 -10q-43 -9 -73 -9q-118 0 -167 68q-31 43 -32 201q-1 160 160 395q-68 4 -73 35q-2 14 -8 44q0 34 39 39
q17 0 59 -34q16 -13 32 -25.5t31 -12.5q26 -1 39 10q19 15 55 23q13 3 25 3q31 0 49.5 -18.5t19.5 -43.5q1 -21 -16.5 -40.5t-49.5 -29.5q-5 -2 -39 -5q-15 0 -39 8q-27 10 -38 11q-9 0 -32 -24t-59 -91q-71 -133 -73 -284q-1 -66 19 -110q15 -34 30 -41.5t35 -7.5
q25 0 72.5 10.5t70.5 11.5q34 1 63 -16q73 -43 75 -151z" />
    <glyph glyph-name="braceleft" unicode="{" horiz-adv-x="346" 
d="M206 6q0 -53 16 -80q19 -31 67 -42q-90 0 -121 29q-34 31 -34 119v159q0 53 -13 75q-15 27 -63 40q45 12 60.5 38.5t15.5 74.5v175q0 81 38 111q33 26 117 26q-48 -13 -65.5 -41.5t-17.5 -81.5v-174q0 -58 -14 -83q-16 -30 -67 -45q50 -12 68 -50q13 -27 13 -86v-164z
" />
    <glyph glyph-name="bar" unicode="|" horiz-adv-x="281" 
d="M187 0h-97v773q1 3 25 3q43 0 53 -1q-4 0 12 2q8 0 8 -4z" />
    <glyph glyph-name="braceright" unicode="}" horiz-adv-x="346" 
d="M127 608q0 53 -16 79q-19 30 -67 44q84 0 117 -26q38 -30 38 -111v-175q0 -51 14 -73q16 -25 62 -40q-48 -12 -63 -40q-13 -22 -13 -75v-159q0 -86 -33.5 -117t-121.5 -31q83 17 83 122v164q0 61 12 87q17 34 69 49q-49 12 -67 46q-14 26 -14 82v174z" />
    <glyph glyph-name="asciitilde" unicode="~" horiz-adv-x="530" 
d="M265 -2q-31 81 -38 372q0 16 7 39.5l7 23.5q-15 0 -52 -11t-52 -11q-48 1 -101 23v34q27 17 100 22q24 2 62 -6t44 -8q-18 39 -17 66q2 49 3 98q5 62 24 93q2 -3 23 0q28 -52 30 -191q0 -29 -18 -66q10 1 55 11q25 5 46 3q69 -6 103 -22v-34q-36 -19 -96 -23
q-19 -1 -56.5 10.5t-50.5 11.5l8 -24t7 -40q-12 -291 -38 -371z" />
    <glyph glyph-name="Adieresis" unicode="&#xc4;" horiz-adv-x="216" 
d="M31 558l55 192q6 22 35 25q21 0 37 -7.5t18 -33.5q1 -13 -4 -20l-113 -165z" />
    <glyph glyph-name="Adieresis" unicode="&#x402;" horiz-adv-x="216" 
d="M31 558l55 192q6 22 35 25q21 0 37 -7.5t18 -33.5q1 -13 -4 -20l-113 -165z" />
    <glyph glyph-name="Aring" unicode="&#xc5;" horiz-adv-x="216" 
d="M169 549l-113 165q-5 7 -4 20q2 26 18 33.5t37 7.5q29 -3 35 -25l55 -192z" />
    <glyph glyph-name="Aring" unicode="&#x403;" horiz-adv-x="216" 
d="M169 549l-113 165q-5 7 -4 20q2 26 18 33.5t37 7.5q29 -3 35 -25l55 -192z" />
    <glyph glyph-name="Ccedilla" unicode="&#xc7;" horiz-adv-x="574" 
d="M481 716q-12 -34 -41.5 -56t-64.5 -22q-20 0 -77 33q-52 30 -67 30q-61 0 -86 -53l-22 41q27 73 109 75q21 1 73 -30.5t70 -33.5q26 0 50.5 16.5t33.5 40.5z" />
    <glyph glyph-name="Ccedilla" unicode="&#x201a;" horiz-adv-x="574" 
d="M481 716q-12 -34 -41.5 -56t-64.5 -22q-20 0 -77 33q-52 30 -67 30q-61 0 -86 -53l-22 41q27 73 109 75q21 1 73 -30.5t70 -33.5q26 0 50.5 16.5t33.5 40.5z" />
    <glyph glyph-name="Eacute" unicode="&#xc9;" horiz-adv-x="255" 
d="M68 727q2 17 14 30.5t40 13.5q34 0 53 -38q10 -20 10 -49q-1 -11 -2 -35q-5 -26 -17 -49q-6 -12 -19 -18l-18 -6q-14 -7 -18 -7q-21 3 -26 10q-6 12 -6 20q7 -1 31 16q22 23 33 37q7 9 -18 33q-12 11 -34.5 17.5t-22.5 24.5z" />
    <glyph glyph-name="Eacute" unicode="&#x453;" horiz-adv-x="255" 
d="M68 727q2 17 14 30.5t40 13.5q34 0 53 -38q10 -20 10 -49q-1 -11 -2 -35q-5 -26 -17 -49q-6 -12 -19 -18l-18 -6q-14 -7 -18 -7q-21 3 -26 10q-6 12 -6 20q7 -1 31 16q22 23 33 37q7 9 -18 33q-12 11 -34.5 17.5t-22.5 24.5z" />
    <glyph glyph-name="Ntilde" unicode="&#xd1;" horiz-adv-x="255" 
d="M113 702q-24 -6 -36 -17q-25 -24 -18 -33q11 -14 33 -37q13 -13 31 -16q0 -8 -6 -20q-5 -7 -26 -10q-4 0 -18 7l-18 6q-13 6 -19 18q-12 23 -17 49q-1 12 -2 35q0 56 35 78q15 9 28 9q28 0 40 -13.5t14 -30.5q0 -18 -21 -25z" />
    <glyph glyph-name="Ntilde" unicode="&#x201e;" horiz-adv-x="255" 
d="M113 702q-24 -6 -36 -17q-25 -24 -18 -33q11 -14 33 -37q13 -13 31 -16q0 -8 -6 -20q-5 -7 -26 -10q-4 0 -18 7l-18 6q-13 6 -19 18q-12 23 -17 49q-1 12 -2 35q0 56 35 78q15 9 28 9q28 0 40 -13.5t14 -30.5q0 -18 -21 -25z" />
    <glyph glyph-name="Odieresis" unicode="&#xd6;" horiz-adv-x="399" 
d="M201 558l55 192q6 22 35 25q21 0 37 -7.5t18 -33.5q1 -13 -4 -20l-113 -165zM68 727q2 17 14 30.5t40 13.5q34 0 53 -38q10 -20 10 -49q-1 -11 -2 -35q-5 -26 -17 -49q-6 -12 -19 -18l-18 -6q-14 -7 -18 -7q-21 3 -26 10q-6 12 -6 20q7 -1 31 16q22 23 33 37q7 9 -18 33
q-12 11 -34.5 17.5t-22.5 24.5z" />
    <glyph glyph-name="Odieresis" unicode="&#x2026;" horiz-adv-x="399" 
d="M201 558l55 192q6 22 35 25q21 0 37 -7.5t18 -33.5q1 -13 -4 -20l-113 -165zM68 727q2 17 14 30.5t40 13.5q34 0 53 -38q10 -20 10 -49q-1 -11 -2 -35q-5 -26 -17 -49q-6 -12 -19 -18l-18 -6q-14 -7 -18 -7q-21 3 -26 10q-6 12 -6 20q7 -1 31 16q22 23 33 37q7 9 -18 33
q-12 11 -34.5 17.5t-22.5 24.5z" />
    <glyph glyph-name="Udieresis" unicode="&#xdc;" horiz-adv-x="431" 
d="M121 702q-24 -6 -36 -17q-25 -24 -18 -33q11 -14 33 -37q13 -13 31 -16q0 -8 -6 -20q-5 -7 -26 -10q-4 0 -18 7l-18 6q-13 6 -19 18q-12 23 -17 49q-1 12 -2 35q0 56 35 78q15 9 28 9q28 0 40 -13.5t14 -30.5q0 -18 -21 -25zM231 558l55 192q6 22 35 25q21 0 37 -7.5
t18 -33.5q1 -13 -4 -20l-113 -165z" />
    <glyph glyph-name="Udieresis" unicode="&#x2020;" horiz-adv-x="431" 
d="M121 702q-24 -6 -36 -17q-25 -24 -18 -33q11 -14 33 -37q13 -13 31 -16q0 -8 -6 -20q-5 -7 -26 -10q-4 0 -18 7l-18 6q-13 6 -19 18q-12 23 -17 49q-1 12 -2 35q0 56 35 78q15 9 28 9q28 0 40 -13.5t14 -30.5q0 -18 -21 -25zM231 558l55 192q6 22 35 25q21 0 37 -7.5
t18 -33.5q1 -13 -4 -20l-113 -165z" />
    <glyph glyph-name="aacute" unicode="&#xe1;" horiz-adv-x="431" 
d="M339 549l-113 165q-5 7 -4 20q2 26 18 33.5t37 7.5q29 -3 35 -25l55 -192zM68 727q2 17 14 30.5t40 13.5q34 0 53 -38q10 -20 10 -49q-1 -11 -2 -35q-5 -26 -17 -49q-6 -12 -19 -18l-18 -6q-14 -7 -18 -7q-21 3 -26 10q-6 12 -6 20q7 -1 31 16q22 23 33 37q7 9 -18 33
q-12 11 -34.5 17.5t-22.5 24.5z" />
    <glyph glyph-name="aacute" unicode="&#x2021;" horiz-adv-x="431" 
d="M339 549l-113 165q-5 7 -4 20q2 26 18 33.5t37 7.5q29 -3 35 -25l55 -192zM68 727q2 17 14 30.5t40 13.5q34 0 53 -38q10 -20 10 -49q-1 -11 -2 -35q-5 -26 -17 -49q-6 -12 -19 -18l-18 -6q-14 -7 -18 -7q-21 3 -26 10q-6 12 -6 20q7 -1 31 16q22 23 33 37q7 9 -18 33
q-12 11 -34.5 17.5t-22.5 24.5z" />
    <glyph glyph-name="agrave" unicode="&#xe0;" horiz-adv-x="371" 
d="M121 702q-24 -6 -36 -17q-25 -24 -18 -33q11 -14 33 -37q13 -13 31 -16q0 -8 -6 -20q-5 -7 -26 -10q-4 0 -18 7l-18 6q-13 6 -19 18q-12 23 -17 49q-1 12 -2 35q0 56 35 78q15 9 28 9q28 0 40 -13.5t14 -30.5q0 -18 -21 -25zM309 549l-113 165q-5 7 -4 20q2 26 18 33.5
t37 7.5q29 -3 35 -25l55 -192z" />
    <glyph glyph-name="agrave" unicode="&#x20ac;" horiz-adv-x="371" 
d="M121 702q-24 -6 -36 -17q-25 -24 -18 -33q11 -14 33 -37q13 -13 31 -16q0 -8 -6 -20q-5 -7 -26 -10q-4 0 -18 7l-18 6q-13 6 -19 18q-12 23 -17 49q-1 12 -2 35q0 56 35 78q15 9 28 9q28 0 40 -13.5t14 -30.5q0 -18 -21 -25zM309 549l-113 165q-5 7 -4 20q2 26 18 33.5
t37 7.5q29 -3 35 -25l55 -192z" />
    <glyph glyph-name="acircumflex" unicode="&#xe2;" horiz-adv-x="575" 
d="M141 796q6 -16 10 -21q5 -9 17 -16q26 -16 39 -16q14 1 25 4q21 6 43 20q52 33 75 32q82 -2 109 -75l-22 -36q-25 53 -86 53q-12 0 -23 -6q-10 -1 -42 -14q-26 -15 -47 -24q-30 -13 -50 -13q-14 0 -24 7.5t-21 15.5q-34 24 -43 49zM235 665q1 6 12.5 19t41.5 13
q17 0 28 -7q9 -3 25 -19q10 -20 10 -59q-1 -8 -2 -25q-2 -8 -6 -13q-7 -8 -11 -16q-6 -12 -19 -18l-18 -6q-14 -7 -18 -7q-21 3 -26 10q-6 12 -6 20q7 -1 31 16q9 9 16 12t10.5 7.5t1.5 18.5q-2 13 -7 18q-11 10 -39 17q-24 9 -24 19z" />
    <glyph glyph-name="acircumflex" unicode="&#x2030;" horiz-adv-x="575" 
d="M141 796q6 -16 10 -21q5 -9 17 -16q26 -16 39 -16q14 1 25 4q21 6 43 20q52 33 75 32q82 -2 109 -75l-22 -36q-25 53 -86 53q-12 0 -23 -6q-10 -1 -42 -14q-26 -15 -47 -24q-30 -13 -50 -13q-14 0 -24 7.5t-21 15.5q-34 24 -43 49zM235 665q1 6 12.5 19t41.5 13
q17 0 28 -7q9 -3 25 -19q10 -20 10 -59q-1 -8 -2 -25q-2 -8 -6 -13q-7 -8 -11 -16q-6 -12 -19 -18l-18 -6q-14 -7 -18 -7q-21 3 -26 10q-6 12 -6 20q7 -1 31 16q9 9 16 12t10.5 7.5t1.5 18.5q-2 13 -7 18q-11 10 -39 17q-24 9 -24 19z" />
    <glyph glyph-name="adieresis" unicode="&#xe4;" horiz-adv-x="575" 
d="M441 756q-9 -25 -43 -49q-30 -21 -63 -21q-20 0 -77 33q-18 6 -44 16q-11 6 -23 6q-61 0 -86 -53l-22 36q27 73 109 75q21 1 73 -30.5t70 -33.5q26 0 50.5 16.5t33.5 40.5zM283 646q-28 -7 -39 -17q-5 -5 -7 -18q-2 -14 1.5 -18.5t10.5 -7.5t16 -12q13 -13 31 -16
q0 -8 -6 -20q-5 -7 -26 -10q-4 0 -18 7l-18 6q-13 6 -19 18q-7 7 -17 29q-1 7 -2 25q0 39 10 59q3 5 25 19q15 9 28 9q28 0 41 -14q6 -5 13 -20q0 -10 -24 -19z" />
    <glyph glyph-name="adieresis" unicode="&#x409;" horiz-adv-x="575" 
d="M441 756q-9 -25 -43 -49q-30 -21 -63 -21q-20 0 -77 33q-18 6 -44 16q-11 6 -23 6q-61 0 -86 -53l-22 36q27 73 109 75q21 1 73 -30.5t70 -33.5q26 0 50.5 16.5t33.5 40.5zM283 646q-28 -7 -39 -17q-5 -5 -7 -18q-2 -14 1.5 -18.5t10.5 -7.5t16 -12q13 -13 31 -16
q0 -8 -6 -20q-5 -7 -26 -10q-4 0 -18 7l-18 6q-13 6 -19 18q-7 7 -17 29q-1 7 -2 25q0 39 10 59q3 5 25 19q15 9 28 9q28 0 41 -14q6 -5 13 -20q0 -10 -24 -19z" />
    <glyph glyph-name="atilde" unicode="&#xe3;" 
d="M561 0q-15 5 -33 33q-7 11 -39 27q-5 2 -22 4q-11 0 -62 -36q-40 -28 -116 -28q-224 0 -226 253q-1 111 65 179q62 64 185 65q82 1 123 -30q45 -34 53 -34q4 0 21 10q7 8 33 31q15 8 33 20q4 3 27 3q28 0 32 -35q0 -6 -9 -12q-34 -17 -64 -54q-24 -30 -25 -143
q0 -55 24.5 -110t66.5 -91q4 -3 4 -8q0 -10 -21 -27q-29 -24 -50 -17zM152 234q3 -45 20 -80t37 -53q8 -8 31 -21q31 -10 40 -10q95 0 132.5 56t40.5 140q1 48 -30 94q-43 62 -114 63q-29 0 -74 -18q-27 -11 -44 -31q-36 -42 -39 -140zM292 558l55 192q6 22 35 25
q21 0 37 -7.5t18 -33.5q1 -13 -4 -20l-113 -165z" />
    <glyph glyph-name="atilde" unicode="&#x2039;" 
d="M561 0q-15 5 -33 33q-7 11 -39 27q-5 2 -22 4q-11 0 -62 -36q-40 -28 -116 -28q-224 0 -226 253q-1 111 65 179q62 64 185 65q82 1 123 -30q45 -34 53 -34q4 0 21 10q7 8 33 31q15 8 33 20q4 3 27 3q28 0 32 -35q0 -6 -9 -12q-34 -17 -64 -54q-24 -30 -25 -143
q0 -55 24.5 -110t66.5 -91q4 -3 4 -8q0 -10 -21 -27q-29 -24 -50 -17zM152 234q3 -45 20 -80t37 -53q8 -8 31 -21q31 -10 40 -10q95 0 132.5 56t40.5 140q1 48 -30 94q-43 62 -114 63q-29 0 -74 -18q-27 -11 -44 -31q-36 -42 -39 -140zM292 558l55 192q6 22 35 25
q21 0 37 -7.5t18 -33.5q1 -13 -4 -20l-113 -165z" />
    <glyph glyph-name="aring" unicode="&#xe5;" 
d="M561 0q-15 5 -33 33q-7 11 -39 27q-5 2 -22 4q-11 0 -62 -36q-40 -28 -116 -28q-224 0 -226 253q-1 111 65 179q62 64 185 65q82 1 123 -30q45 -34 53 -34q4 0 21 10q7 8 33 31q15 8 33 20q4 3 27 3q28 0 32 -35q0 -6 -9 -12q-34 -17 -64 -54q-24 -30 -25 -143
q0 -55 24.5 -110t66.5 -91q4 -3 4 -8q0 -10 -21 -27q-29 -24 -50 -17zM152 234q3 -45 20 -80t37 -53q8 -8 31 -21q31 -10 40 -10q95 0 132.5 56t40.5 140q1 48 -30 94q-43 62 -114 63q-29 0 -74 -18q-27 -11 -44 -31q-36 -42 -39 -140zM320 549l-113 165q-5 7 -4 20
q2 26 18 33.5t37 7.5q29 -3 35 -25l55 -192z" />
    <glyph glyph-name="aring" unicode="&#x40a;" 
d="M561 0q-15 5 -33 33q-7 11 -39 27q-5 2 -22 4q-11 0 -62 -36q-40 -28 -116 -28q-224 0 -226 253q-1 111 65 179q62 64 185 65q82 1 123 -30q45 -34 53 -34q4 0 21 10q7 8 33 31q15 8 33 20q4 3 27 3q28 0 32 -35q0 -6 -9 -12q-34 -17 -64 -54q-24 -30 -25 -143
q0 -55 24.5 -110t66.5 -91q4 -3 4 -8q0 -10 -21 -27q-29 -24 -50 -17zM152 234q3 -45 20 -80t37 -53q8 -8 31 -21q31 -10 40 -10q95 0 132.5 56t40.5 140q1 48 -30 94q-43 62 -114 63q-29 0 -74 -18q-27 -11 -44 -31q-36 -42 -39 -140zM320 549l-113 165q-5 7 -4 20
q2 26 18 33.5t37 7.5q29 -3 35 -25l55 -192z" />
    <glyph glyph-name="ccedilla" unicode="&#xe7;" 
d="M561 0q-15 5 -33 33q-7 11 -39 27q-5 2 -22 4q-11 0 -62 -36q-40 -28 -116 -28q-224 0 -226 253q-1 111 65 179q62 64 185 65q82 1 123 -30q45 -34 53 -34q4 0 21 10q7 8 33 31q15 8 33 20q4 3 27 3q28 0 32 -35q0 -6 -9 -12q-34 -17 -64 -54q-24 -30 -25 -143
q0 -55 24.5 -110t66.5 -91q4 -3 4 -8q0 -10 -21 -27q-29 -24 -50 -17zM152 234q3 -45 20 -80t37 -53q8 -8 31 -21q31 -10 40 -10q95 0 132.5 56t40.5 140q1 48 -30 94q-43 62 -114 63q-29 0 -74 -18q-27 -11 -44 -31q-36 -42 -39 -140zM512 655q-12 -34 -41.5 -56t-64.5 -22
q-20 0 -77 33q-52 30 -67 30q-61 0 -86 -53l-22 41q27 73 109 75q21 1 73 -30.5t70 -33.5q26 0 50.5 16.5t33.5 40.5z" />
    <glyph glyph-name="ccedilla" unicode="&#x40c;" 
d="M561 0q-15 5 -33 33q-7 11 -39 27q-5 2 -22 4q-11 0 -62 -36q-40 -28 -116 -28q-224 0 -226 253q-1 111 65 179q62 64 185 65q82 1 123 -30q45 -34 53 -34q4 0 21 10q7 8 33 31q15 8 33 20q4 3 27 3q28 0 32 -35q0 -6 -9 -12q-34 -17 -64 -54q-24 -30 -25 -143
q0 -55 24.5 -110t66.5 -91q4 -3 4 -8q0 -10 -21 -27q-29 -24 -50 -17zM152 234q3 -45 20 -80t37 -53q8 -8 31 -21q31 -10 40 -10q95 0 132.5 56t40.5 140q1 48 -30 94q-43 62 -114 63q-29 0 -74 -18q-27 -11 -44 -31q-36 -42 -39 -140zM512 655q-12 -34 -41.5 -56t-64.5 -22
q-20 0 -77 33q-52 30 -67 30q-61 0 -86 -53l-22 41q27 73 109 75q21 1 73 -30.5t70 -33.5q26 0 50.5 16.5t33.5 40.5z" />
    <glyph glyph-name="eacute" unicode="&#xe9;" 
d="M561 0q-15 5 -33 33q-7 11 -39 27q-5 2 -22 4q-11 0 -62 -36q-40 -28 -116 -28q-224 0 -226 253q-1 111 65 179q62 64 185 65q82 1 123 -30q45 -34 53 -34q4 0 21 10q7 8 33 31q15 8 33 20q4 3 27 3q28 0 32 -35q0 -6 -9 -12q-34 -17 -64 -54q-24 -30 -25 -143
q0 -55 24.5 -110t66.5 -91q4 -3 4 -8q0 -10 -21 -27q-29 -24 -50 -17zM152 234q3 -45 20 -80t37 -53q8 -8 31 -21q31 -10 40 -10q95 0 132.5 56t40.5 140q1 48 -30 94q-43 62 -114 63q-29 0 -74 -18q-27 -11 -44 -31q-36 -42 -39 -140zM249 727q2 17 14 30.5t40 13.5
q34 0 53 -38q10 -20 10 -49q-1 -11 -2 -35q-5 -26 -17 -49q-6 -12 -19 -18l-18 -6q-14 -7 -18 -7q-21 3 -26 10q-6 12 -6 20q7 -1 31 16q22 23 33 37q7 9 -18 33q-12 11 -34.5 17.5t-22.5 24.5z" />
    <glyph glyph-name="eacute" unicode="&#x40b;" 
d="M561 0q-15 5 -33 33q-7 11 -39 27q-5 2 -22 4q-11 0 -62 -36q-40 -28 -116 -28q-224 0 -226 253q-1 111 65 179q62 64 185 65q82 1 123 -30q45 -34 53 -34q4 0 21 10q7 8 33 31q15 8 33 20q4 3 27 3q28 0 32 -35q0 -6 -9 -12q-34 -17 -64 -54q-24 -30 -25 -143
q0 -55 24.5 -110t66.5 -91q4 -3 4 -8q0 -10 -21 -27q-29 -24 -50 -17zM152 234q3 -45 20 -80t37 -53q8 -8 31 -21q31 -10 40 -10q95 0 132.5 56t40.5 140q1 48 -30 94q-43 62 -114 63q-29 0 -74 -18q-27 -11 -44 -31q-36 -42 -39 -140zM249 727q2 17 14 30.5t40 13.5
q34 0 53 -38q10 -20 10 -49q-1 -11 -2 -35q-5 -26 -17 -49q-6 -12 -19 -18l-18 -6q-14 -7 -18 -7q-21 3 -26 10q-6 12 -6 20q7 -1 31 16q22 23 33 37q7 9 -18 33q-12 11 -34.5 17.5t-22.5 24.5z" />
    <glyph glyph-name="egrave" unicode="&#xe8;" 
d="M561 0q-15 5 -33 33q-7 11 -39 27q-5 2 -22 4q-11 0 -62 -36q-40 -28 -116 -28q-224 0 -226 253q-1 111 65 179q62 64 185 65q82 1 123 -30q45 -34 53 -34q4 0 21 10q7 8 33 31q15 8 33 20q4 3 27 3q28 0 32 -35q0 -6 -9 -12q-34 -17 -64 -54q-24 -30 -25 -143
q0 -55 24.5 -110t66.5 -91q4 -3 4 -8q0 -10 -21 -27q-29 -24 -50 -17zM152 234q3 -45 20 -80t37 -53q8 -8 31 -21q31 -10 40 -10q95 0 132.5 56t40.5 140q1 48 -30 94q-43 62 -114 63q-29 0 -74 -18q-27 -11 -44 -31q-36 -42 -39 -140zM359 702q-24 -6 -36 -17
q-25 -24 -18 -33q11 -14 33 -37q13 -13 31 -16q0 -8 -6 -20q-5 -7 -26 -10q-4 0 -18 7l-18 6q-13 6 -19 18q-12 23 -17 49q-1 12 -2 35q0 56 35 78q15 9 28 9q28 0 40 -13.5t14 -30.5q0 -18 -21 -25z" />
    <glyph glyph-name="egrave" unicode="&#x40f;" 
d="M561 0q-15 5 -33 33q-7 11 -39 27q-5 2 -22 4q-11 0 -62 -36q-40 -28 -116 -28q-224 0 -226 253q-1 111 65 179q62 64 185 65q82 1 123 -30q45 -34 53 -34q4 0 21 10q7 8 33 31q15 8 33 20q4 3 27 3q28 0 32 -35q0 -6 -9 -12q-34 -17 -64 -54q-24 -30 -25 -143
q0 -55 24.5 -110t66.5 -91q4 -3 4 -8q0 -10 -21 -27q-29 -24 -50 -17zM152 234q3 -45 20 -80t37 -53q8 -8 31 -21q31 -10 40 -10q95 0 132.5 56t40.5 140q1 48 -30 94q-43 62 -114 63q-29 0 -74 -18q-27 -11 -44 -31q-36 -42 -39 -140zM359 702q-24 -6 -36 -17
q-25 -24 -18 -33q11 -14 33 -37q13 -13 31 -16q0 -8 -6 -20q-5 -7 -26 -10q-4 0 -18 7l-18 6q-13 6 -19 18q-12 23 -17 49q-1 12 -2 35q0 56 35 78q15 9 28 9q28 0 40 -13.5t14 -30.5q0 -18 -21 -25z" />
    <glyph glyph-name="ecircumflex" unicode="&#xea;" 
d="M561 0q-15 5 -33 33q-7 11 -39 27q-5 2 -22 4q-11 0 -62 -36q-40 -28 -116 -28q-224 0 -226 253q-1 111 65 179q62 64 185 65q82 1 123 -30q45 -34 53 -34q4 0 21 10q7 8 33 31q15 8 33 20q4 3 27 3q28 0 32 -35q0 -6 -9 -12q-34 -17 -64 -54q-24 -30 -25 -143
q0 -55 24.5 -110t66.5 -91q4 -3 4 -8q0 -10 -21 -27q-29 -24 -50 -17zM152 234q3 -45 20 -80t37 -53q8 -8 31 -21q31 -10 40 -10q95 0 132.5 56t40.5 140q1 48 -30 94q-43 62 -114 63q-29 0 -74 -18q-27 -11 -44 -31q-36 -42 -39 -140zM334 552l55 192q6 22 35 25
q21 0 37 -7.5t18 -33.5q1 -13 -4 -20l-113 -165zM201 721q2 17 14 30.5t40 13.5q34 0 53 -38q10 -20 10 -49q-1 -11 -2 -35q-5 -26 -17 -49q-6 -12 -19 -18l-18 -6q-14 -7 -18 -7q-21 3 -26 10q-6 12 -6 20q7 -1 31 16q22 23 33 37q7 9 -18 33q-12 11 -34.5 17.5t-22.5 24.5
z" />
    <glyph glyph-name="ecircumflex" unicode="&#x452;" 
d="M561 0q-15 5 -33 33q-7 11 -39 27q-5 2 -22 4q-11 0 -62 -36q-40 -28 -116 -28q-224 0 -226 253q-1 111 65 179q62 64 185 65q82 1 123 -30q45 -34 53 -34q4 0 21 10q7 8 33 31q15 8 33 20q4 3 27 3q28 0 32 -35q0 -6 -9 -12q-34 -17 -64 -54q-24 -30 -25 -143
q0 -55 24.5 -110t66.5 -91q4 -3 4 -8q0 -10 -21 -27q-29 -24 -50 -17zM152 234q3 -45 20 -80t37 -53q8 -8 31 -21q31 -10 40 -10q95 0 132.5 56t40.5 140q1 48 -30 94q-43 62 -114 63q-29 0 -74 -18q-27 -11 -44 -31q-36 -42 -39 -140zM334 552l55 192q6 22 35 25
q21 0 37 -7.5t18 -33.5q1 -13 -4 -20l-113 -165zM201 721q2 17 14 30.5t40 13.5q34 0 53 -38q10 -20 10 -49q-1 -11 -2 -35q-5 -26 -17 -49q-6 -12 -19 -18l-18 -6q-14 -7 -18 -7q-21 3 -26 10q-6 12 -6 20q7 -1 31 16q22 23 33 37q7 9 -18 33q-12 11 -34.5 17.5t-22.5 24.5
z" />
    <glyph glyph-name="edieresis" unicode="&#xeb;" 
d="M561 0q-15 5 -33 33q-7 11 -39 27q-5 2 -22 4q-11 0 -62 -36q-40 -28 -116 -28q-224 0 -226 253q-1 111 65 179q62 64 185 65q82 1 123 -30q45 -34 53 -34q4 0 21 10q7 8 33 31q15 8 33 20q4 3 27 3q28 0 32 -35q0 -6 -9 -12q-34 -17 -64 -54q-24 -30 -25 -143
q0 -55 24.5 -110t66.5 -91q4 -3 4 -8q0 -10 -21 -27q-29 -24 -50 -17zM152 234q3 -45 20 -80t37 -53q8 -8 31 -21q31 -10 40 -10q95 0 132.5 56t40.5 140q1 48 -30 94q-43 62 -114 63q-29 0 -74 -18q-27 -11 -44 -31q-36 -42 -39 -140zM240 708q-24 -6 -36 -17
q-25 -24 -18 -33q11 -14 33 -37q13 -13 31 -16q0 -8 -6 -20q-5 -7 -26 -10q-4 0 -18 7l-18 6q-13 6 -19 18q-12 23 -17 49q-1 12 -2 35q0 56 35 78q15 9 28 9q28 0 40 -13.5t14 -30.5q0 -18 -21 -25zM350 564l55 192q6 22 35 25q21 0 37 -7.5t18 -33.5q1 -13 -4 -20
l-113 -165z" />
    <glyph glyph-name="edieresis" unicode="&#x2018;" 
d="M561 0q-15 5 -33 33q-7 11 -39 27q-5 2 -22 4q-11 0 -62 -36q-40 -28 -116 -28q-224 0 -226 253q-1 111 65 179q62 64 185 65q82 1 123 -30q45 -34 53 -34q4 0 21 10q7 8 33 31q15 8 33 20q4 3 27 3q28 0 32 -35q0 -6 -9 -12q-34 -17 -64 -54q-24 -30 -25 -143
q0 -55 24.5 -110t66.5 -91q4 -3 4 -8q0 -10 -21 -27q-29 -24 -50 -17zM152 234q3 -45 20 -80t37 -53q8 -8 31 -21q31 -10 40 -10q95 0 132.5 56t40.5 140q1 48 -30 94q-43 62 -114 63q-29 0 -74 -18q-27 -11 -44 -31q-36 -42 -39 -140zM240 708q-24 -6 -36 -17
q-25 -24 -18 -33q11 -14 33 -37q13 -13 31 -16q0 -8 -6 -20q-5 -7 -26 -10q-4 0 -18 7l-18 6q-13 6 -19 18q-12 23 -17 49q-1 12 -2 35q0 56 35 78q15 9 28 9q28 0 40 -13.5t14 -30.5q0 -18 -21 -25zM350 564l55 192q6 22 35 25q21 0 37 -7.5t18 -33.5q1 -13 -4 -20
l-113 -165z" />
    <glyph glyph-name="iacute" unicode="&#xed;" 
d="M561 0q-15 5 -33 33q-7 11 -39 27q-5 2 -22 4q-11 0 -62 -36q-40 -28 -116 -28q-224 0 -226 253q-1 111 65 179q62 64 185 65q82 1 123 -30q45 -34 53 -34q4 0 21 10q7 8 33 31q15 8 33 20q4 3 27 3q28 0 32 -35q0 -6 -9 -12q-34 -17 -64 -54q-24 -30 -25 -143
q0 -55 24.5 -110t66.5 -91q4 -3 4 -8q0 -10 -21 -27q-29 -24 -50 -17zM152 234q3 -45 20 -80t37 -53q8 -8 31 -21q31 -10 40 -10q95 0 132.5 56t40.5 140q1 48 -30 94q-43 62 -114 63q-29 0 -74 -18q-27 -11 -44 -31q-36 -42 -39 -140zM448 561l-113 165q-5 7 -4 20
q2 26 18 33.5t37 7.5q29 -3 35 -25l55 -192zM177 739q2 17 14 30.5t40 13.5q34 0 53 -38q10 -20 10 -49q-1 -11 -2 -35q-5 -26 -17 -49q-6 -12 -19 -18l-18 -6q-14 -7 -18 -7q-21 3 -26 10q-6 12 -6 20q7 -1 31 16q22 23 33 37q7 9 -18 33q-12 11 -34.5 17.5t-22.5 24.5z
" />
    <glyph glyph-name="iacute" unicode="&#x2019;" 
d="M561 0q-15 5 -33 33q-7 11 -39 27q-5 2 -22 4q-11 0 -62 -36q-40 -28 -116 -28q-224 0 -226 253q-1 111 65 179q62 64 185 65q82 1 123 -30q45 -34 53 -34q4 0 21 10q7 8 33 31q15 8 33 20q4 3 27 3q28 0 32 -35q0 -6 -9 -12q-34 -17 -64 -54q-24 -30 -25 -143
q0 -55 24.5 -110t66.5 -91q4 -3 4 -8q0 -10 -21 -27q-29 -24 -50 -17zM152 234q3 -45 20 -80t37 -53q8 -8 31 -21q31 -10 40 -10q95 0 132.5 56t40.5 140q1 48 -30 94q-43 62 -114 63q-29 0 -74 -18q-27 -11 -44 -31q-36 -42 -39 -140zM448 561l-113 165q-5 7 -4 20
q2 26 18 33.5t37 7.5q29 -3 35 -25l55 -192zM177 739q2 17 14 30.5t40 13.5q34 0 53 -38q10 -20 10 -49q-1 -11 -2 -35q-5 -26 -17 -49q-6 -12 -19 -18l-18 -6q-14 -7 -18 -7q-21 3 -26 10q-6 12 -6 20q7 -1 31 16q22 23 33 37q7 9 -18 33q-12 11 -34.5 17.5t-22.5 24.5z
" />
    <glyph glyph-name="igrave" unicode="&#xec;" 
d="M561 0q-15 5 -33 33q-7 11 -39 27q-5 2 -22 4q-11 0 -62 -36q-40 -28 -116 -28q-224 0 -226 253q-1 111 65 179q62 64 185 65q82 1 123 -30q45 -34 53 -34q4 0 21 10q7 8 33 31q15 8 33 20q4 3 27 3q28 0 32 -35q0 -6 -9 -12q-34 -17 -64 -54q-24 -30 -25 -143
q0 -55 24.5 -110t66.5 -91q4 -3 4 -8q0 -10 -21 -27q-29 -24 -50 -17zM152 234q3 -45 20 -80t37 -53q8 -8 31 -21q31 -10 40 -10q95 0 132.5 56t40.5 140q1 48 -30 94q-43 62 -114 63q-29 0 -74 -18q-27 -11 -44 -31q-36 -42 -39 -140zM194 714q-24 -6 -36 -17
q-25 -24 -18 -33q11 -14 33 -37q13 -13 31 -16q0 -8 -6 -20q-5 -7 -26 -10q-4 0 -18 7l-18 6q-13 6 -19 18q-12 23 -17 49q-1 12 -2 35q0 56 35 78q15 9 28 9q28 0 40 -13.5t14 -30.5q0 -18 -21 -25zM382 561l-113 165q-5 7 -4 20q2 26 18 33.5t37 7.5q29 -3 35 -25l55 -192
z" />
    <glyph glyph-name="igrave" unicode="&#x201c;" 
d="M561 0q-15 5 -33 33q-7 11 -39 27q-5 2 -22 4q-11 0 -62 -36q-40 -28 -116 -28q-224 0 -226 253q-1 111 65 179q62 64 185 65q82 1 123 -30q45 -34 53 -34q4 0 21 10q7 8 33 31q15 8 33 20q4 3 27 3q28 0 32 -35q0 -6 -9 -12q-34 -17 -64 -54q-24 -30 -25 -143
q0 -55 24.5 -110t66.5 -91q4 -3 4 -8q0 -10 -21 -27q-29 -24 -50 -17zM152 234q3 -45 20 -80t37 -53q8 -8 31 -21q31 -10 40 -10q95 0 132.5 56t40.5 140q1 48 -30 94q-43 62 -114 63q-29 0 -74 -18q-27 -11 -44 -31q-36 -42 -39 -140zM194 714q-24 -6 -36 -17
q-25 -24 -18 -33q11 -14 33 -37q13 -13 31 -16q0 -8 -6 -20q-5 -7 -26 -10q-4 0 -18 7l-18 6q-13 6 -19 18q-12 23 -17 49q-1 12 -2 35q0 56 35 78q15 9 28 9q28 0 40 -13.5t14 -30.5q0 -18 -21 -25zM382 561l-113 165q-5 7 -4 20q2 26 18 33.5t37 7.5q29 -3 35 -25l55 -192
z" />
    <glyph glyph-name="icircumflex" unicode="&#xee;" 
d="M561 0q-15 5 -33 33q-7 11 -39 27q-5 2 -22 4q-11 0 -62 -36q-40 -28 -116 -28q-224 0 -226 253q-1 111 65 179q62 64 185 65q82 1 123 -30q45 -34 53 -34q4 0 21 10q7 8 33 31q15 8 33 20q4 3 27 3q28 0 32 -35q0 -6 -9 -12q-34 -17 -64 -54q-24 -30 -25 -143
q0 -55 24.5 -110t66.5 -91q4 -3 4 -8q0 -10 -21 -27q-29 -24 -50 -17zM152 234q3 -45 20 -80t37 -53q8 -8 31 -21q31 -10 40 -10q95 0 132.5 56t40.5 140q1 48 -30 94q-43 62 -114 63q-29 0 -74 -18q-27 -11 -44 -31q-36 -42 -39 -140zM186 802q6 -16 10 -21q5 -9 17 -16
q26 -16 39 -16q14 1 25 4q21 6 43 20q52 33 75 32q82 -2 109 -75l-22 -36q-25 53 -86 53q-12 0 -23 -6q-10 -1 -42 -14q-26 -15 -47 -24q-30 -13 -50 -13q-14 0 -24 7.5t-21 15.5q-34 24 -43 49zM280 671q1 6 12.5 19t41.5 13q17 0 28 -7q9 -3 25 -19q10 -20 10 -59
q-1 -8 -2 -25q-2 -8 -6 -13q-7 -8 -11 -16q-6 -12 -19 -18l-18 -6q-14 -7 -18 -7q-21 3 -26 10q-6 12 -6 20q7 -1 31 16q9 9 16 12t10.5 7.5t1.5 18.5q-2 13 -7 18q-11 10 -39 17q-24 9 -24 19z" />
    <glyph glyph-name="icircumflex" unicode="&#x201d;" 
d="M561 0q-15 5 -33 33q-7 11 -39 27q-5 2 -22 4q-11 0 -62 -36q-40 -28 -116 -28q-224 0 -226 253q-1 111 65 179q62 64 185 65q82 1 123 -30q45 -34 53 -34q4 0 21 10q7 8 33 31q15 8 33 20q4 3 27 3q28 0 32 -35q0 -6 -9 -12q-34 -17 -64 -54q-24 -30 -25 -143
q0 -55 24.5 -110t66.5 -91q4 -3 4 -8q0 -10 -21 -27q-29 -24 -50 -17zM152 234q3 -45 20 -80t37 -53q8 -8 31 -21q31 -10 40 -10q95 0 132.5 56t40.5 140q1 48 -30 94q-43 62 -114 63q-29 0 -74 -18q-27 -11 -44 -31q-36 -42 -39 -140zM186 802q6 -16 10 -21q5 -9 17 -16
q26 -16 39 -16q14 1 25 4q21 6 43 20q52 33 75 32q82 -2 109 -75l-22 -36q-25 53 -86 53q-12 0 -23 -6q-10 -1 -42 -14q-26 -15 -47 -24q-30 -13 -50 -13q-14 0 -24 7.5t-21 15.5q-34 24 -43 49zM280 671q1 6 12.5 19t41.5 13q17 0 28 -7q9 -3 25 -19q10 -20 10 -59
q-1 -8 -2 -25q-2 -8 -6 -13q-7 -8 -11 -16q-6 -12 -19 -18l-18 -6q-14 -7 -18 -7q-21 3 -26 10q-6 12 -6 20q7 -1 31 16q9 9 16 12t10.5 7.5t1.5 18.5q-2 13 -7 18q-11 10 -39 17q-24 9 -24 19z" />
    <glyph glyph-name="idieresis" unicode="&#xef;" 
d="M561 0q-15 5 -33 33q-7 11 -39 27q-5 2 -22 4q-11 0 -62 -36q-40 -28 -116 -28q-224 0 -226 253q-1 111 65 179q62 64 185 65q82 1 123 -30q45 -34 53 -34q4 0 21 10q7 8 33 31q15 8 33 20q4 3 27 3q28 0 32 -35q0 -6 -9 -12q-34 -17 -64 -54q-24 -30 -25 -143
q0 -55 24.5 -110t66.5 -91q4 -3 4 -8q0 -10 -21 -27q-29 -24 -50 -17zM152 234q3 -45 20 -80t37 -53q8 -8 31 -21q31 -10 40 -10q95 0 132.5 56t40.5 140q1 48 -30 94q-43 62 -114 63q-29 0 -74 -18q-27 -11 -44 -31q-36 -42 -39 -140zM510 750q-9 -25 -43 -49
q-30 -21 -63 -21q-20 0 -77 33q-18 6 -44 16q-11 6 -23 6q-61 0 -86 -53l-22 36q27 73 109 75q21 1 73 -30.5t70 -33.5q26 0 50.5 16.5t33.5 40.5zM352 640q-28 -7 -39 -17q-5 -5 -7 -18q-2 -14 1.5 -18.5t10.5 -7.5t16 -12q13 -13 31 -16q0 -8 -6 -20q-5 -7 -26 -10
q-4 0 -18 7l-18 6q-13 6 -19 18q-7 7 -17 29q-1 7 -2 25q0 39 10 59q3 5 25 19q15 9 28 9q28 0 41 -14q6 -5 13 -20q0 -10 -24 -19z" />
    <glyph glyph-name="idieresis" unicode="&#x2022;" 
d="M561 0q-15 5 -33 33q-7 11 -39 27q-5 2 -22 4q-11 0 -62 -36q-40 -28 -116 -28q-224 0 -226 253q-1 111 65 179q62 64 185 65q82 1 123 -30q45 -34 53 -34q4 0 21 10q7 8 33 31q15 8 33 20q4 3 27 3q28 0 32 -35q0 -6 -9 -12q-34 -17 -64 -54q-24 -30 -25 -143
q0 -55 24.5 -110t66.5 -91q4 -3 4 -8q0 -10 -21 -27q-29 -24 -50 -17zM152 234q3 -45 20 -80t37 -53q8 -8 31 -21q31 -10 40 -10q95 0 132.5 56t40.5 140q1 48 -30 94q-43 62 -114 63q-29 0 -74 -18q-27 -11 -44 -31q-36 -42 -39 -140zM510 750q-9 -25 -43 -49
q-30 -21 -63 -21q-20 0 -77 33q-18 6 -44 16q-11 6 -23 6q-61 0 -86 -53l-22 36q27 73 109 75q21 1 73 -30.5t70 -33.5q26 0 50.5 16.5t33.5 40.5zM352 640q-28 -7 -39 -17q-5 -5 -7 -18q-2 -14 1.5 -18.5t10.5 -7.5t16 -12q13 -13 31 -16q0 -8 -6 -20q-5 -7 -26 -10
q-4 0 -18 7l-18 6q-13 6 -19 18q-7 7 -17 29q-1 7 -2 25q0 39 10 59q3 5 25 19q15 9 28 9q28 0 41 -14q6 -5 13 -20q0 -10 -24 -19z" />
    <glyph glyph-name="ntilde" unicode="&#xf1;" 
d="M560 0q-15 5 -33 33q-7 11 -39 27q-5 2 -22 4q-11 0 -62 -36q-40 -28 -116 -28q-224 0 -226 253q-1 111 65 179q62 64 185 65q82 1 123 -30q45 -34 53 -34q4 0 21 10q8 9 33 31q15 9 33 20q5 3 27 3q28 0 32 -35q0 -6 -9 -12q-34 -17 -64 -54q-24 -30 -25 -143
q0 -55 25 -110t66 -91q4 -3 4 -8q0 -10 -21 -27q-28 -24 -50 -17zM151 234q3 -45 20 -80t37 -53q8 -8 31 -21q31 -10 40 -10q95 0 133 56t40 140q2 48 -30 94q-42 62 -114 63q-29 1 -74 -18q-27 -11 -44 -31q-29 -33 -36 -94q-2 -18 -3 -46zM289 558l55 192q6 22 35 25
q21 0 37 -7.5t18 -33.5q1 -13 -4 -20l-113 -165zM350 -64v-115q25 -7 30 -10q13 -6 23 -21q4 -4 -10 -10q-11 -1 -37 -6q-20 0 -44 6q-14 3 -33 14v142q0 12 37 12q34 0 34 -12z" />
    <glyph glyph-name="ntilde" unicode="&#x2013;" 
d="M560 0q-15 5 -33 33q-7 11 -39 27q-5 2 -22 4q-11 0 -62 -36q-40 -28 -116 -28q-224 0 -226 253q-1 111 65 179q62 64 185 65q82 1 123 -30q45 -34 53 -34q4 0 21 10q8 9 33 31q15 9 33 20q5 3 27 3q28 0 32 -35q0 -6 -9 -12q-34 -17 -64 -54q-24 -30 -25 -143
q0 -55 25 -110t66 -91q4 -3 4 -8q0 -10 -21 -27q-28 -24 -50 -17zM151 234q3 -45 20 -80t37 -53q8 -8 31 -21q31 -10 40 -10q95 0 133 56t40 140q2 48 -30 94q-42 62 -114 63q-29 1 -74 -18q-27 -11 -44 -31q-29 -33 -36 -94q-2 -18 -3 -46zM289 558l55 192q6 22 35 25
q21 0 37 -7.5t18 -33.5q1 -13 -4 -20l-113 -165zM350 -64v-115q25 -7 30 -10q13 -6 23 -21q4 -4 -10 -10q-11 -1 -37 -6q-20 0 -44 6q-14 3 -33 14v142q0 12 37 12q34 0 34 -12z" />
    <glyph glyph-name="oacute" unicode="&#xf3;" 
d="M560 0q-15 5 -33 33q-7 11 -39 27q-5 2 -22 4q-11 0 -62 -36q-40 -28 -116 -28q-224 0 -226 253q-1 111 65 179q62 64 185 65q82 1 123 -30q45 -34 53 -34q4 0 21 10q8 9 33 31q15 9 33 20q5 3 27 3q28 0 32 -35q0 -6 -9 -12q-34 -17 -64 -54q-24 -30 -25 -143
q0 -55 25 -110t66 -91q4 -3 4 -8q0 -10 -21 -27q-28 -24 -50 -17zM151 234q3 -45 20 -80t37 -53q8 -8 31 -21q31 -10 40 -10q95 0 133 56t40 140q2 48 -30 94q-42 62 -114 63q-29 1 -74 -18q-27 -11 -44 -31q-29 -33 -36 -94q-2 -18 -3 -46zM309 549l-113 165q-5 7 -4 20
q2 26 18 33.5t37 7.5q29 -3 35 -25l55 -192zM320 -64v-115q25 -7 30 -10q13 -6 23 -21q4 -4 -10 -10q-11 -1 -37 -6q-20 0 -44 6q-14 3 -33 14v142q0 12 37 12q34 0 34 -12z" />
    <glyph glyph-name="oacute" unicode="&#x2014;" 
d="M560 0q-15 5 -33 33q-7 11 -39 27q-5 2 -22 4q-11 0 -62 -36q-40 -28 -116 -28q-224 0 -226 253q-1 111 65 179q62 64 185 65q82 1 123 -30q45 -34 53 -34q4 0 21 10q8 9 33 31q15 9 33 20q5 3 27 3q28 0 32 -35q0 -6 -9 -12q-34 -17 -64 -54q-24 -30 -25 -143
q0 -55 25 -110t66 -91q4 -3 4 -8q0 -10 -21 -27q-28 -24 -50 -17zM151 234q3 -45 20 -80t37 -53q8 -8 31 -21q31 -10 40 -10q95 0 133 56t40 140q2 48 -30 94q-42 62 -114 63q-29 1 -74 -18q-27 -11 -44 -31q-29 -33 -36 -94q-2 -18 -3 -46zM309 549l-113 165q-5 7 -4 20
q2 26 18 33.5t37 7.5q29 -3 35 -25l55 -192zM320 -64v-115q25 -7 30 -10q13 -6 23 -21q4 -4 -10 -10q-11 -1 -37 -6q-20 0 -44 6q-14 3 -33 14v142q0 12 37 12q34 0 34 -12z" />
    <glyph glyph-name="ograve" 
d="M560 0q-15 5 -33 33q-7 11 -39 27q-5 2 -22 4q-11 0 -62 -36q-40 -28 -116 -28q-224 0 -226 253q-1 111 65 179q62 64 185 65q82 1 123 -30q45 -34 53 -34q4 0 21 10q8 9 33 31q15 9 33 20q5 3 27 3q28 0 32 -35q0 -6 -9 -12q-34 -17 -64 -54q-24 -30 -25 -143
q0 -55 25 -110t66 -91q4 -3 4 -8q0 -10 -21 -27q-28 -24 -50 -17zM151 234q3 -45 20 -80t37 -53q8 -8 31 -21q31 -10 40 -10q95 0 133 56t40 140q2 48 -30 94q-42 62 -114 63q-29 1 -74 -18q-27 -11 -44 -31q-29 -33 -36 -94q-2 -18 -3 -46zM511 655q-12 -34 -41.5 -56
t-64.5 -22q-20 0 -77 33q-52 30 -67 30q-61 0 -86 -53l-22 41q27 73 109 75q21 1 73 -30.5t70 -33.5q26 0 50.5 16.5t33.5 40.5zM340 -64v-115q25 -7 30 -10q13 -6 23 -21q4 -4 -10 -10q-11 -1 -37 -6q-20 0 -44 6q-14 3 -33 14v142q0 12 37 12q34 0 34 -12z" />
    <glyph glyph-name="ograve" unicode="&#x2121;" 
d="M560 0q-15 5 -33 33q-7 11 -39 27q-5 2 -22 4q-11 0 -62 -36q-40 -28 -116 -28q-224 0 -226 253q-1 111 65 179q62 64 185 65q82 1 123 -30q45 -34 53 -34q4 0 21 10q8 9 33 31q15 9 33 20q5 3 27 3q28 0 32 -35q0 -6 -9 -12q-34 -17 -64 -54q-24 -30 -25 -143
q0 -55 25 -110t66 -91q4 -3 4 -8q0 -10 -21 -27q-28 -24 -50 -17zM151 234q3 -45 20 -80t37 -53q8 -8 31 -21q31 -10 40 -10q95 0 133 56t40 140q2 48 -30 94q-42 62 -114 63q-29 1 -74 -18q-27 -11 -44 -31q-29 -33 -36 -94q-2 -18 -3 -46zM511 655q-12 -34 -41.5 -56
t-64.5 -22q-20 0 -77 33q-52 30 -67 30q-61 0 -86 -53l-22 41q27 73 109 75q21 1 73 -30.5t70 -33.5q26 0 50.5 16.5t33.5 40.5zM340 -64v-115q25 -7 30 -10q13 -6 23 -21q4 -4 -10 -10q-11 -1 -37 -6q-20 0 -44 6q-14 3 -33 14v142q0 12 37 12q34 0 34 -12z" />
    <glyph glyph-name="ocircumflex" unicode="&#xf4;" 
d="M560 0q-15 5 -33 33q-7 11 -39 27q-5 2 -22 4q-11 0 -62 -36q-40 -28 -116 -28q-224 0 -226 253q-1 111 65 179q62 64 185 65q82 1 123 -30q45 -34 53 -34q4 0 21 10q8 9 33 31q15 9 33 20q5 3 27 3q28 0 32 -35q0 -6 -9 -12q-34 -17 -64 -54q-24 -30 -25 -143
q0 -55 25 -110t66 -91q4 -3 4 -8q0 -10 -21 -27q-28 -24 -50 -17zM151 234q3 -45 20 -80t37 -53q8 -8 31 -21q31 -10 40 -10q95 0 133 56t40 140q2 48 -30 94q-42 62 -114 63q-29 1 -74 -18q-27 -11 -44 -31q-29 -33 -36 -94q-2 -18 -3 -46zM258 727q2 17 14 30.5t40 13.5
q34 0 53 -38q10 -20 10 -49q0 -10 -2 -35q-5 -26 -17 -49q-6 -12 -19 -18l-18 -6q-14 -7 -18 -7q-21 3 -26 10q-6 12 -6 20q7 -1 31 16q22 23 33 37q7 10 -18 33q-12 11 -34.5 18t-22.5 24zM340 -64v-115q25 -7 30 -10q13 -6 23 -21q4 -4 -10 -10q-11 -1 -37 -6q-20 0 -44 6
q-14 3 -33 14v142q0 12 37 12q34 0 34 -12z" />
    <glyph glyph-name="ocircumflex" unicode="&#x2122;" 
d="M560 0q-15 5 -33 33q-7 11 -39 27q-5 2 -22 4q-11 0 -62 -36q-40 -28 -116 -28q-224 0 -226 253q-1 111 65 179q62 64 185 65q82 1 123 -30q45 -34 53 -34q4 0 21 10q8 9 33 31q15 9 33 20q5 3 27 3q28 0 32 -35q0 -6 -9 -12q-34 -17 -64 -54q-24 -30 -25 -143
q0 -55 25 -110t66 -91q4 -3 4 -8q0 -10 -21 -27q-28 -24 -50 -17zM151 234q3 -45 20 -80t37 -53q8 -8 31 -21q31 -10 40 -10q95 0 133 56t40 140q2 48 -30 94q-42 62 -114 63q-29 1 -74 -18q-27 -11 -44 -31q-29 -33 -36 -94q-2 -18 -3 -46zM258 727q2 17 14 30.5t40 13.5
q34 0 53 -38q10 -20 10 -49q0 -10 -2 -35q-5 -26 -17 -49q-6 -12 -19 -18l-18 -6q-14 -7 -18 -7q-21 3 -26 10q-6 12 -6 20q7 -1 31 16q22 23 33 37q7 10 -18 33q-12 11 -34.5 18t-22.5 24zM340 -64v-115q25 -7 30 -10q13 -6 23 -21q4 -4 -10 -10q-11 -1 -37 -6q-20 0 -44 6
q-14 3 -33 14v142q0 12 37 12q34 0 34 -12z" />
    <glyph glyph-name="odieresis" unicode="&#xf6;" 
d="M560 0q-15 5 -33 33q-7 11 -39 27q-5 2 -22 4q-11 0 -62 -36q-40 -28 -116 -28q-224 0 -226 253q-1 111 65 179q62 64 185 65q82 1 123 -30q45 -34 53 -34q4 0 21 10q8 9 33 31q15 9 33 20q5 3 27 3q28 0 32 -35q0 -6 -9 -12q-34 -17 -64 -54q-24 -30 -25 -143
q0 -55 25 -110t66 -91q4 -3 4 -8q0 -10 -21 -27q-28 -24 -50 -17zM151 234q3 -45 20 -80t37 -53q8 -8 31 -21q31 -10 40 -10q95 0 133 56t40 140q2 48 -30 94q-42 62 -114 63q-29 1 -74 -18q-27 -11 -44 -31q-29 -33 -36 -94q-2 -18 -3 -46zM353 702q-24 -6 -36 -17
q-25 -23 -18 -33q11 -14 33 -37q13 -13 31 -16q0 -8 -6 -20q-5 -7 -26 -10q-4 0 -18 7l-18 6q-13 6 -19 18q-12 23 -17 49q-1 13 -2 35q0 57 35 78q15 9 28 9q28 0 40 -13.5t14 -30.5q0 -17 -21 -25zM330 -64v-115q25 -7 30 -10q13 -6 23 -21q4 -4 -10 -10q-11 -1 -37 -6
q-20 0 -44 6q-14 3 -33 14v142q0 12 37 12q34 0 34 -12z" />
    <glyph glyph-name="odieresis" unicode="&#x459;" 
d="M560 0q-15 5 -33 33q-7 11 -39 27q-5 2 -22 4q-11 0 -62 -36q-40 -28 -116 -28q-224 0 -226 253q-1 111 65 179q62 64 185 65q82 1 123 -30q45 -34 53 -34q4 0 21 10q8 9 33 31q15 9 33 20q5 3 27 3q28 0 32 -35q0 -6 -9 -12q-34 -17 -64 -54q-24 -30 -25 -143
q0 -55 25 -110t66 -91q4 -3 4 -8q0 -10 -21 -27q-28 -24 -50 -17zM151 234q3 -45 20 -80t37 -53q8 -8 31 -21q31 -10 40 -10q95 0 133 56t40 140q2 48 -30 94q-42 62 -114 63q-29 1 -74 -18q-27 -11 -44 -31q-29 -33 -36 -94q-2 -18 -3 -46zM353 702q-24 -6 -36 -17
q-25 -23 -18 -33q11 -14 33 -37q13 -13 31 -16q0 -8 -6 -20q-5 -7 -26 -10q-4 0 -18 7l-18 6q-13 6 -19 18q-12 23 -17 49q-1 13 -2 35q0 57 35 78q15 9 28 9q28 0 40 -13.5t14 -30.5q0 -17 -21 -25zM330 -64v-115q25 -7 30 -10q13 -6 23 -21q4 -4 -10 -10q-11 -1 -37 -6
q-20 0 -44 6q-14 3 -33 14v142q0 12 37 12q34 0 34 -12z" />
    <glyph glyph-name="otilde" unicode="&#xf5;" 
d="M560 0q-15 5 -33 33q-7 11 -39 27q-5 2 -22 4q-11 0 -62 -36q-40 -28 -116 -28q-224 0 -226 253q-1 111 65 179q62 64 185 65q82 1 123 -30q45 -34 53 -34q4 0 21 10q8 9 33 31q15 9 33 20q5 3 27 3q28 0 32 -35q0 -6 -9 -12q-34 -17 -64 -54q-24 -30 -25 -143
q0 -55 25 -110t66 -91q4 -3 4 -8q0 -10 -21 -27q-28 -24 -50 -17zM151 234q3 -45 20 -80t37 -53q8 -8 31 -21q31 -10 40 -10q95 0 133 56t40 140q2 48 -30 94q-42 62 -114 63q-29 1 -74 -18q-27 -11 -44 -31q-29 -33 -36 -94q-2 -18 -3 -46zM333 552l55 192q6 22 35 25
q21 0 37 -7.5t18 -33.5q1 -13 -4 -20l-113 -165zM200 721q2 17 14 30.5t40 13.5q34 0 53 -38q10 -20 10 -49q0 -10 -2 -35q-5 -26 -17 -49q-6 -12 -19 -18l-18 -6q-14 -7 -18 -7q-21 3 -26 10q-6 12 -6 20q7 -1 31 16q22 23 33 37q7 10 -18 33q-12 11 -34.5 18t-22.5 24z
M330 -64v-115q25 -7 30 -10q13 -6 23 -21q4 -4 -10 -10q-11 -1 -37 -6q-20 0 -44 6q-14 3 -33 14v142q0 12 37 12q34 0 34 -12z" />
    <glyph glyph-name="otilde" unicode="&#x203a;" 
d="M560 0q-15 5 -33 33q-7 11 -39 27q-5 2 -22 4q-11 0 -62 -36q-40 -28 -116 -28q-224 0 -226 253q-1 111 65 179q62 64 185 65q82 1 123 -30q45 -34 53 -34q4 0 21 10q8 9 33 31q15 9 33 20q5 3 27 3q28 0 32 -35q0 -6 -9 -12q-34 -17 -64 -54q-24 -30 -25 -143
q0 -55 25 -110t66 -91q4 -3 4 -8q0 -10 -21 -27q-28 -24 -50 -17zM151 234q3 -45 20 -80t37 -53q8 -8 31 -21q31 -10 40 -10q95 0 133 56t40 140q2 48 -30 94q-42 62 -114 63q-29 1 -74 -18q-27 -11 -44 -31q-29 -33 -36 -94q-2 -18 -3 -46zM333 552l55 192q6 22 35 25
q21 0 37 -7.5t18 -33.5q1 -13 -4 -20l-113 -165zM200 721q2 17 14 30.5t40 13.5q34 0 53 -38q10 -20 10 -49q0 -10 -2 -35q-5 -26 -17 -49q-6 -12 -19 -18l-18 -6q-14 -7 -18 -7q-21 3 -26 10q-6 12 -6 20q7 -1 31 16q22 23 33 37q7 10 -18 33q-12 11 -34.5 18t-22.5 24z
M330 -64v-115q25 -7 30 -10q13 -6 23 -21q4 -4 -10 -10q-11 -1 -37 -6q-20 0 -44 6q-14 3 -33 14v142q0 12 37 12q34 0 34 -12z" />
    <glyph glyph-name="uacute" unicode="&#xfa;" 
d="M560 0q-15 5 -33 33q-7 11 -39 27q-5 2 -22 4q-11 0 -62 -36q-40 -28 -116 -28q-224 0 -226 253q-1 111 65 179q62 64 185 65q82 1 123 -30q45 -34 53 -34q4 0 21 10q8 9 33 31q15 9 33 20q5 3 27 3q28 0 32 -35q0 -6 -9 -12q-34 -17 -64 -54q-24 -30 -25 -143
q0 -55 25 -110t66 -91q4 -3 4 -8q0 -10 -21 -27q-28 -24 -50 -17zM151 234q3 -45 20 -80t37 -53q8 -8 31 -21q31 -10 40 -10q95 0 133 56t40 140q2 48 -30 94q-42 62 -114 63q-29 1 -74 -18q-27 -11 -44 -31q-29 -33 -36 -94q-2 -18 -3 -46zM230 708q-24 -6 -36 -17
q-25 -23 -18 -33q11 -14 33 -37q13 -13 31 -16q0 -8 -6 -20q-5 -7 -26 -10q-4 0 -18 7l-18 6q-13 6 -19 18q-12 23 -17 49q0 13 -2 35q0 57 35 78q15 9 28 9q29 0 40.5 -13.5t13.5 -30.5q0 -17 -21 -25zM340 564l55 192q6 22 35 25q21 0 37 -7.5t18 -33.5q1 -13 -4 -20
l-113 -165zM330 -64v-115q25 -7 30 -10q13 -6 23 -21q4 -4 -10 -10q-11 -1 -37 -6q-20 0 -44 6q-14 3 -33 14v142q0 12 37 12q34 0 34 -12z" />
    <glyph glyph-name="uacute" unicode="&#x45a;" 
d="M560 0q-15 5 -33 33q-7 11 -39 27q-5 2 -22 4q-11 0 -62 -36q-40 -28 -116 -28q-224 0 -226 253q-1 111 65 179q62 64 185 65q82 1 123 -30q45 -34 53 -34q4 0 21 10q8 9 33 31q15 9 33 20q5 3 27 3q28 0 32 -35q0 -6 -9 -12q-34 -17 -64 -54q-24 -30 -25 -143
q0 -55 25 -110t66 -91q4 -3 4 -8q0 -10 -21 -27q-28 -24 -50 -17zM151 234q3 -45 20 -80t37 -53q8 -8 31 -21q31 -10 40 -10q95 0 133 56t40 140q2 48 -30 94q-42 62 -114 63q-29 1 -74 -18q-27 -11 -44 -31q-29 -33 -36 -94q-2 -18 -3 -46zM230 708q-24 -6 -36 -17
q-25 -23 -18 -33q11 -14 33 -37q13 -13 31 -16q0 -8 -6 -20q-5 -7 -26 -10q-4 0 -18 7l-18 6q-13 6 -19 18q-12 23 -17 49q0 13 -2 35q0 57 35 78q15 9 28 9q29 0 40.5 -13.5t13.5 -30.5q0 -17 -21 -25zM340 564l55 192q6 22 35 25q21 0 37 -7.5t18 -33.5q1 -13 -4 -20
l-113 -165zM330 -64v-115q25 -7 30 -10q13 -6 23 -21q4 -4 -10 -10q-11 -1 -37 -6q-20 0 -44 6q-14 3 -33 14v142q0 12 37 12q34 0 34 -12z" />
    <glyph glyph-name="ugrave" unicode="&#xf9;" 
d="M560 0q-15 5 -33 33q-7 11 -39 27q-5 2 -22 4q-11 0 -62 -36q-40 -28 -116 -28q-224 0 -226 253q-1 111 65 179q62 64 185 65q82 1 123 -30q45 -34 53 -34q4 0 21 10q8 9 33 31q15 9 33 20q5 3 27 3q28 0 32 -35q0 -6 -9 -12q-34 -17 -64 -54q-24 -30 -25 -143
q0 -55 25 -110t66 -91q4 -3 4 -8q0 -10 -21 -27q-28 -24 -50 -17zM151 234q3 -45 20 -80t37 -53q8 -8 31 -21q31 -10 40 -10q95 0 133 56t40 140q2 48 -30 94q-42 62 -114 63q-29 1 -74 -18q-27 -11 -44 -31q-29 -33 -36 -94q-2 -18 -3 -46zM447 561l-113 165q-5 7 -4 20
q2 26 18 33.5t37 7.5q29 -3 35 -25l55 -192zM176 739q2 17 14 30.5t40 13.5q34 0 53 -38q10 -20 10 -49q0 -10 -2 -35q-5 -26 -17 -49q-6 -12 -19 -18l-18 -6q-14 -7 -18 -7q-21 3 -26 10q-6 12 -6 20q7 -1 31 16q22 23 33 37q7 10 -18 33q-12 11 -34.5 18t-22.5 24z
M340 -64v-115q25 -7 30 -10q13 -6 23 -21q4 -4 -10 -10q-11 -1 -37 -6q-20 0 -44 6q-14 3 -33 14v142q0 12 37 12q34 0 34 -12z" />
    <glyph glyph-name="ugrave" unicode="&#x45c;" 
d="M560 0q-15 5 -33 33q-7 11 -39 27q-5 2 -22 4q-11 0 -62 -36q-40 -28 -116 -28q-224 0 -226 253q-1 111 65 179q62 64 185 65q82 1 123 -30q45 -34 53 -34q4 0 21 10q8 9 33 31q15 9 33 20q5 3 27 3q28 0 32 -35q0 -6 -9 -12q-34 -17 -64 -54q-24 -30 -25 -143
q0 -55 25 -110t66 -91q4 -3 4 -8q0 -10 -21 -27q-28 -24 -50 -17zM151 234q3 -45 20 -80t37 -53q8 -8 31 -21q31 -10 40 -10q95 0 133 56t40 140q2 48 -30 94q-42 62 -114 63q-29 1 -74 -18q-27 -11 -44 -31q-29 -33 -36 -94q-2 -18 -3 -46zM447 561l-113 165q-5 7 -4 20
q2 26 18 33.5t37 7.5q29 -3 35 -25l55 -192zM176 739q2 17 14 30.5t40 13.5q34 0 53 -38q10 -20 10 -49q0 -10 -2 -35q-5 -26 -17 -49q-6 -12 -19 -18l-18 -6q-14 -7 -18 -7q-21 3 -26 10q-6 12 -6 20q7 -1 31 16q22 23 33 37q7 10 -18 33q-12 11 -34.5 18t-22.5 24z
M340 -64v-115q25 -7 30 -10q13 -6 23 -21q4 -4 -10 -10q-11 -1 -37 -6q-20 0 -44 6q-14 3 -33 14v142q0 12 37 12q34 0 34 -12z" />
    <glyph glyph-name="ucircumflex" unicode="&#xfb;" 
d="M560 0q-15 5 -33 33q-7 11 -39 27q-5 2 -22 4q-11 0 -62 -36q-40 -28 -116 -28q-224 0 -226 253q-1 111 65 179q62 64 185 65q82 1 123 -30q45 -34 53 -34q4 0 21 10q8 9 33 31q15 9 33 20q5 3 27 3q28 0 32 -35q0 -6 -9 -12q-34 -17 -64 -54q-24 -30 -25 -143
q0 -55 25 -110t66 -91q4 -3 4 -8q0 -10 -21 -27q-28 -24 -50 -17zM151 234q3 -45 20 -80t37 -53q8 -8 31 -21q31 -10 40 -10q95 0 133 56t40 140q2 48 -30 94q-42 62 -114 63q-29 1 -74 -18q-27 -11 -44 -31q-29 -33 -36 -94q-2 -18 -3 -46zM193 714q-24 -6 -36 -17
q-25 -23 -18 -33q11 -14 33 -37q13 -13 31 -16q0 -8 -6 -20q-5 -7 -26 -10q-4 0 -18 7l-18 6q-13 6 -19 18q-12 23 -17 49q0 13 -2 35q0 57 35 78q15 9 28 9q29 0 40.5 -13.5t13.5 -30.5q0 -17 -21 -25zM381 561l-113 165q-5 7 -4 20q2 26 18 33.5t37 7.5q29 -3 35 -25
l55 -192zM330 -64v-115q25 -7 30 -10q13 -6 23 -21q4 -4 -10 -10q-11 -1 -37 -6q-20 0 -44 6q-14 3 -33 14v142q0 12 37 12q34 0 34 -12z" />
    <glyph glyph-name="ucircumflex" unicode="&#x45b;" 
d="M560 0q-15 5 -33 33q-7 11 -39 27q-5 2 -22 4q-11 0 -62 -36q-40 -28 -116 -28q-224 0 -226 253q-1 111 65 179q62 64 185 65q82 1 123 -30q45 -34 53 -34q4 0 21 10q8 9 33 31q15 9 33 20q5 3 27 3q28 0 32 -35q0 -6 -9 -12q-34 -17 -64 -54q-24 -30 -25 -143
q0 -55 25 -110t66 -91q4 -3 4 -8q0 -10 -21 -27q-28 -24 -50 -17zM151 234q3 -45 20 -80t37 -53q8 -8 31 -21q31 -10 40 -10q95 0 133 56t40 140q2 48 -30 94q-42 62 -114 63q-29 1 -74 -18q-27 -11 -44 -31q-29 -33 -36 -94q-2 -18 -3 -46zM193 714q-24 -6 -36 -17
q-25 -23 -18 -33q11 -14 33 -37q13 -13 31 -16q0 -8 -6 -20q-5 -7 -26 -10q-4 0 -18 7l-18 6q-13 6 -19 18q-12 23 -17 49q0 13 -2 35q0 57 35 78q15 9 28 9q29 0 40.5 -13.5t13.5 -30.5q0 -17 -21 -25zM381 561l-113 165q-5 7 -4 20q2 26 18 33.5t37 7.5q29 -3 35 -25
l55 -192zM330 -64v-115q25 -7 30 -10q13 -6 23 -21q4 -4 -10 -10q-11 -1 -37 -6q-20 0 -44 6q-14 3 -33 14v142q0 12 37 12q34 0 34 -12z" />
    <glyph glyph-name="udieresis" unicode="&#xfc;" 
d="M560 0q-15 5 -33 33q-7 11 -39 27q-5 2 -22 4q-11 0 -62 -36q-40 -28 -116 -28q-224 0 -226 253q-1 111 65 179q62 64 185 65q82 1 123 -30q45 -34 53 -34q4 0 21 10q8 9 33 31q15 9 33 20q5 3 27 3q28 0 32 -35q0 -6 -9 -12q-34 -17 -64 -54q-24 -30 -25 -143
q0 -55 25 -110t66 -91q4 -3 4 -8q0 -10 -21 -27q-28 -24 -50 -17zM151 234q3 -45 20 -80t37 -53q8 -8 31 -21q31 -10 40 -10q95 0 133 56t40 140q2 48 -30 94q-42 62 -114 63q-29 1 -74 -18q-27 -11 -44 -31q-29 -33 -36 -94q-2 -18 -3 -46zM205 802q6 -16 10 -21
q6 -9 17 -16q26 -16 39 -16q14 1 25 5q21 6 43 19q52 33 75 32q82 -2 109 -75l-22 -36q-25 53 -86 53q-12 0 -23 -6q-10 -1 -42 -14q-26 -15 -47 -24q-30 -13 -50 -13q-14 0 -24 7.5t-21 15.5q-34 25 -43 49zM299 671q1 6 12.5 19t41.5 13q17 0 28 -7q9 -3 25 -19
q10 -20 10 -59q-1 -7 -2 -25q-2 -8 -6 -13q-7 -8 -11 -16q-6 -12 -19 -18l-18 -6q-14 -7 -18 -7q-21 3 -26 10q-6 12 -6 20q7 -1 31 16q9 10 16 12.5t10.5 7t1.5 18.5t-7 18q-11 10 -39 17q-24 9 -24 19zM340 -64v-115q25 -7 30 -10q13 -6 23 -21q4 -4 -10 -10
q-11 -1 -37 -6q-20 0 -44 6q-14 3 -33 14v142q0 12 37 12q34 0 34 -12z" />
    <glyph glyph-name="udieresis" unicode="&#x45f;" 
d="M560 0q-15 5 -33 33q-7 11 -39 27q-5 2 -22 4q-11 0 -62 -36q-40 -28 -116 -28q-224 0 -226 253q-1 111 65 179q62 64 185 65q82 1 123 -30q45 -34 53 -34q4 0 21 10q8 9 33 31q15 9 33 20q5 3 27 3q28 0 32 -35q0 -6 -9 -12q-34 -17 -64 -54q-24 -30 -25 -143
q0 -55 25 -110t66 -91q4 -3 4 -8q0 -10 -21 -27q-28 -24 -50 -17zM151 234q3 -45 20 -80t37 -53q8 -8 31 -21q31 -10 40 -10q95 0 133 56t40 140q2 48 -30 94q-42 62 -114 63q-29 1 -74 -18q-27 -11 -44 -31q-29 -33 -36 -94q-2 -18 -3 -46zM205 802q6 -16 10 -21
q6 -9 17 -16q26 -16 39 -16q14 1 25 5q21 6 43 19q52 33 75 32q82 -2 109 -75l-22 -36q-25 53 -86 53q-12 0 -23 -6q-10 -1 -42 -14q-26 -15 -47 -24q-30 -13 -50 -13q-14 0 -24 7.5t-21 15.5q-34 25 -43 49zM299 671q1 6 12.5 19t41.5 13q17 0 28 -7q9 -3 25 -19
q10 -20 10 -59q-1 -7 -2 -25q-2 -8 -6 -13q-7 -8 -11 -16q-6 -12 -19 -18l-18 -6q-14 -7 -18 -7q-21 3 -26 10q-6 12 -6 20q7 -1 31 16q9 10 16 12.5t10.5 7t1.5 18.5t-7 18q-11 10 -39 17q-24 9 -24 19zM340 -64v-115q25 -7 30 -10q13 -6 23 -21q4 -4 -10 -10
q-11 -1 -37 -6q-20 0 -44 6q-14 3 -33 14v142q0 12 37 12q34 0 34 -12z" />
    <glyph glyph-name="degree" unicode="&#x40e;" horiz-adv-x="420" 
d="M212 558l55 192q6 22 35 25q21 0 37 -7.5t18 -33.5q1 -13 -4 -20l-113 -165zM95 247q-2 14 -22 59q-17 39 -17 78q0 63 63 92q47 21 118 21h46q31 0 41 -6q17 -8 31 -18t15 -34q1 -23 -18 -33q-5 -1 -13 -3q-2 0 -34 17q-25 14 -53 14q-46 1 -64 -4q-35 -9 -53 -48
q-6 -19 -7 -36q-1 -25 8 -44q12 -23 35 -23h153q23 0 24 -28q1 -19 -9 -25q-1 -1 -17 -5h-161q-8 0 -20.5 -18.5t-12.5 -46.5q0 -44 29 -67q6 -6 24 -15q21 -4 72 -5q39 -1 56 8q20 16 31 24q33 7 35 -37q1 -20 -29 -40l-3 -2q-26 -17 -31.5 -19t-76.5 -3t-118 23
q-60 30 -61 94q-1 38 10 68q5 13 29 62z" />
    <glyph glyph-name="cent" unicode="&#xa2;" horiz-adv-x="420" 
d="M95 247q-2 14 -22 59q-17 39 -17 78q0 63 63 92q47 21 118 21h46q31 0 41 -6q17 -8 31 -18t15 -34q1 -23 -18 -33q-5 -1 -13 -3q-2 0 -34 17q-25 14 -53 14q-46 1 -64 -4q-35 -9 -53 -48q-6 -19 -7 -36q-1 -25 8 -44q12 -23 35 -23h153q23 0 24 -28q1 -19 -9 -25
q-1 -1 -17 -5h-161q-8 0 -20.5 -18.5t-12.5 -46.5q0 -44 29 -67q6 -6 24 -15q21 -4 72 -5q39 -1 56 8q20 16 31 24q33 7 35 -37q1 -20 -29 -40l-3 -2q-26 -17 -31.5 -19t-76.5 -3t-118 23q-60 30 -61 94q-1 38 10 68q5 13 29 62zM220 549l-113 165q-5 7 -4 20q2 26 18 33.5
t37 7.5q29 -3 35 -25l55 -192z" />
    <glyph glyph-name="cent" unicode="&#x45e;" horiz-adv-x="420" 
d="M95 247q-2 14 -22 59q-17 39 -17 78q0 63 63 92q47 21 118 21h46q31 0 41 -6q17 -8 31 -18t15 -34q1 -23 -18 -33q-5 -1 -13 -3q-2 0 -34 17q-25 14 -53 14q-46 1 -64 -4q-35 -9 -53 -48q-6 -19 -7 -36q-1 -25 8 -44q12 -23 35 -23h153q23 0 24 -28q1 -19 -9 -25
q-1 -1 -17 -5h-161q-8 0 -20.5 -18.5t-12.5 -46.5q0 -44 29 -67q6 -6 24 -15q21 -4 72 -5q39 -1 56 8q20 16 31 24q33 7 35 -37q1 -20 -29 -40l-3 -2q-26 -17 -31.5 -19t-76.5 -3t-118 23q-60 30 -61 94q-1 38 10 68q5 13 29 62zM220 549l-113 165q-5 7 -4 20q2 26 18 33.5
t37 7.5q29 -3 35 -25l55 -192z" />
    <glyph glyph-name="sterling" unicode="&#xa3;" horiz-adv-x="555" 
d="M223 3q-69 0 -104 72q-21 44 -33 133l-19 140q-7 48 -25 60t-22 23q-5 19 12 39.5t53 20.5q24 0 47 -24q9 -9 19 -143q13 -154 15 -167q13 -71 41 -81q22 -8 45 -12q8 -1 28 -2q25 -1 64.5 13t54.5 119q6 40 9 142q2 74 7 94q13 61 58 62q32 1 49 -17t18 -37
q1 -17 -25 -30q-15 -8 -19 -23q-7 -29 -22 -164q-11 -101 -39.5 -159.5t-99.5 -58.5h-112zM118 554q0 20 16 36.5t37 16.5t37 -16.5t16 -36.5q0 -21 -16 -37t-37 -16t-37 16t-16 37zM435 554q0 -21 -16 -37t-37 -16t-37 16t-16 37q0 20 16 36.5t37 16.5t37 -16.5t16 -36.5z
M259 569l-113 165q-5 7 -4 20q2 26 18 33.5t37 7.5q29 -3 35 -25l55 -192z" />
    <glyph glyph-name="sterling" unicode="&#x408;" horiz-adv-x="555" 
d="M223 3q-69 0 -104 72q-21 44 -33 133l-19 140q-7 48 -25 60t-22 23q-5 19 12 39.5t53 20.5q24 0 47 -24q9 -9 19 -143q13 -154 15 -167q13 -71 41 -81q22 -8 45 -12q8 -1 28 -2q25 -1 64.5 13t54.5 119q6 40 9 142q2 74 7 94q13 61 58 62q32 1 49 -17t18 -37
q1 -17 -25 -30q-15 -8 -19 -23q-7 -29 -22 -164q-11 -101 -39.5 -159.5t-99.5 -58.5h-112zM118 554q0 20 16 36.5t37 16.5t37 -16.5t16 -36.5q0 -21 -16 -37t-37 -16t-37 16t-16 37zM435 554q0 -21 -16 -37t-37 -16t-37 16t-16 37q0 20 16 36.5t37 16.5t37 -16.5t16 -36.5z
M259 569l-113 165q-5 7 -4 20q2 26 18 33.5t37 7.5q29 -3 35 -25l55 -192z" />
    <glyph glyph-name="section" unicode="&#xa4;" horiz-adv-x="420" 
d="M95 247q-2 14 -22 59q-17 39 -17 78q0 63 63 92q47 21 118 21h46q31 0 41 -6q17 -8 31 -18t15 -34q1 -23 -18 -33q-5 -1 -13 -3q-2 0 -34 17q-25 14 -53 14q-46 1 -64 -4q-35 -9 -53 -48q-6 -19 -7 -36q-1 -25 8 -44q12 -23 35 -23h153q23 0 24 -28q1 -19 -9 -25
q-1 -1 -17 -5h-161q-8 0 -20.5 -18.5t-12.5 -46.5q0 -44 29 -67q6 -6 24 -15q21 -4 72 -5q39 -1 56 8q20 16 31 24q33 7 35 -37q1 -20 -29 -40l-3 -2q-26 -17 -31.5 -19t-76.5 -3t-118 23q-60 30 -61 94q-1 38 10 68q5 13 29 62zM149 727q2 17 14 30.5t40 13.5q34 0 53 -38
q10 -20 10 -49q-1 -11 -2 -35q-5 -26 -17 -49q-6 -12 -19 -18l-18 -6q-14 -7 -18 -7q-21 3 -26 10q-6 12 -6 20q7 -1 31 16q22 23 33 37q7 9 -18 33q-12 11 -34.5 17.5t-22.5 24.5z" />
    <glyph glyph-name="bullet" unicode="&#x490;" horiz-adv-x="420" 
d="M95 247q-2 14 -22 59q-17 39 -17 78q0 63 63 92q47 21 118 21h46q31 0 41 -6q17 -8 31 -18t15 -34q1 -23 -18 -33q-5 -1 -13 -3q-2 0 -34 17q-25 14 -53 14q-46 1 -64 -4q-35 -9 -53 -48q-6 -19 -7 -36q-1 -25 8 -44q12 -23 35 -23h153q23 0 24 -28q1 -19 -9 -25
q-1 -1 -17 -5h-161q-8 0 -20.5 -18.5t-12.5 -46.5q0 -44 29 -67q6 -6 24 -15q21 -4 72 -5q39 -1 56 8q20 16 31 24q33 7 35 -37q1 -20 -29 -40l-3 -2q-26 -17 -31.5 -19t-76.5 -3t-118 23q-60 30 -61 94q-1 38 10 68q5 13 29 62zM256 702q-24 -6 -36 -17q-25 -24 -18 -33
q11 -14 33 -37q13 -13 31 -16q0 -8 -6 -20q-5 -7 -26 -10q-4 0 -18 7l-18 6q-13 6 -19 18q-12 23 -17 49q-1 12 -2 35q0 56 35 78q15 9 28 9q28 0 40 -13.5t14 -30.5q0 -18 -21 -25z" />
    <glyph glyph-name="paragraph" unicode="&#xa6;" horiz-adv-x="420" 
d="M95 247q-2 14 -22 59q-17 39 -17 78q0 63 63 92q47 21 118 21h46q31 0 41 -6q17 -8 31 -18t15 -34q1 -23 -18 -33q-5 -1 -13 -3q-2 0 -34 17q-25 14 -53 14q-46 1 -64 -4q-35 -9 -53 -48q-6 -19 -7 -36q-1 -25 8 -44q12 -23 35 -23h153q23 0 24 -28q1 -19 -9 -25
q-1 -1 -17 -5h-161q-8 0 -20.5 -18.5t-12.5 -46.5q0 -44 29 -67q6 -6 24 -15q21 -4 72 -5q39 -1 56 8q20 16 31 24q33 7 35 -37q1 -20 -29 -40l-3 -2q-26 -17 -31.5 -19t-76.5 -3t-118 23q-60 30 -61 94q-1 38 10 68q5 13 29 62zM232 558l55 192q6 22 35 25q21 0 37 -7.5
t18 -33.5q1 -13 -4 -20l-113 -165zM99 727q2 17 14 30.5t40 13.5q34 0 53 -38q10 -20 10 -49q-1 -11 -2 -35q-5 -26 -17 -49q-6 -12 -19 -18l-18 -6q-14 -7 -18 -7q-21 3 -26 10q-6 12 -6 20q7 -1 31 16q22 23 33 37q7 9 -18 33q-12 11 -34.5 17.5t-22.5 24.5z" />
    <glyph glyph-name="germandbls" unicode="&#xa7;" horiz-adv-x="420" 
d="M95 247q-2 14 -22 59q-17 39 -17 78q0 63 63 92q47 21 118 21h46q31 0 41 -6q17 -8 31 -18t15 -34q1 -23 -18 -33q-5 -1 -13 -3q-2 0 -34 17q-25 14 -53 14q-46 1 -64 -4q-35 -9 -53 -48q-6 -19 -7 -36q-1 -25 8 -44q12 -23 35 -23h153q23 0 24 -28q1 -19 -9 -25
q-1 -1 -17 -5h-161q-8 0 -20.5 -18.5t-12.5 -46.5q0 -44 29 -67q6 -6 24 -15q21 -4 72 -5q39 -1 56 8q20 16 31 24q33 7 35 -37q1 -20 -29 -40l-3 -2q-26 -17 -31.5 -19t-76.5 -3t-118 23q-60 30 -61 94q-1 38 10 68q5 13 29 62zM152 702q-24 -6 -36 -17q-25 -24 -18 -33
q11 -14 33 -37q13 -13 31 -16q0 -8 -6 -20q-5 -7 -26 -10q-4 0 -18 7l-18 6q-13 6 -19 18q-12 23 -17 49q-1 12 -2 35q0 56 35 78q15 9 28 9q28 0 40 -13.5t14 -30.5q0 -18 -21 -25zM262 558l55 192q6 22 35 25q21 0 37 -7.5t18 -33.5q1 -13 -4 -20l-113 -165z" />
    <glyph glyph-name="germandbls" unicode="&#xdf;" horiz-adv-x="420" 
d="M95 247q-2 14 -22 59q-17 39 -17 78q0 63 63 92q47 21 118 21h46q31 0 41 -6q17 -8 31 -18t15 -34q1 -23 -18 -33q-5 -1 -13 -3q-2 0 -34 17q-25 14 -53 14q-46 1 -64 -4q-35 -9 -53 -48q-6 -19 -7 -36q-1 -25 8 -44q12 -23 35 -23h153q23 0 24 -28q1 -19 -9 -25
q-1 -1 -17 -5h-161q-8 0 -20.5 -18.5t-12.5 -46.5q0 -44 29 -67q6 -6 24 -15q21 -4 72 -5q39 -1 56 8q20 16 31 24q33 7 35 -37q1 -20 -29 -40l-3 -2q-26 -17 -31.5 -19t-76.5 -3t-118 23q-60 30 -61 94q-1 38 10 68q5 13 29 62zM152 702q-24 -6 -36 -17q-25 -24 -18 -33
q11 -14 33 -37q13 -13 31 -16q0 -8 -6 -20q-5 -7 -26 -10q-4 0 -18 7l-18 6q-13 6 -19 18q-12 23 -17 49q-1 12 -2 35q0 56 35 78q15 9 28 9q28 0 40 -13.5t14 -30.5q0 -18 -21 -25zM262 558l55 192q6 22 35 25q21 0 37 -7.5t18 -33.5q1 -13 -4 -20l-113 -165z" />
    <glyph glyph-name="registered" unicode="&#x401;" horiz-adv-x="420" 
d="M94 247q-2 14 -22 59q-17 39 -17 78q0 63 63 92q47 21 118 21h46q31 0 41 -6q17 -8 31 -18t15 -34q1 -23 -18 -33q-5 -1 -13 -3q-2 0 -34 17q-25 14 -53 14q-46 1 -64 -4q-35 -9 -53 -48q-6 -19 -7 -36q-1 -25 8 -44q12 -23 35 -23h153q23 0 24 -28q1 -19 -9 -25
q-1 -1 -17 -5h-161q-8 0 -20.5 -18.5t-12.5 -46.5q0 -44 29 -67q6 -6 24 -15q21 -4 72 -5q39 -1 56 8q20 16 31 24q33 7 35 -37q1 -20 -29 -40l-3 -2q-26 -17 -31.5 -19t-76.5 -3t-118 23q-60 30 -61 94q-1 38 10 68q5 13 29 62zM319 549l-113 165q-5 7 -4 20q2 26 18 33.5
t37 7.5q29 -3 35 -25l55 -192zM48 727q2 17 14 30.5t40 13.5q34 0 53 -38q10 -20 10 -49q-1 -11 -2 -35q-5 -26 -17 -49q-6 -12 -19 -18l-18 -6q-14 -7 -18 -7q-21 3 -26 10q-6 12 -6 20q7 -1 31 16q22 23 33 37q7 9 -18 33q-12 11 -34.5 17.5t-22.5 24.5z" />
    <glyph glyph-name="copyright" unicode="&#xa9;" horiz-adv-x="420" 
d="M94 247q-2 14 -22 59q-17 39 -17 78q0 63 63 92q47 21 118 21h46q31 0 41 -6q17 -8 31 -18t15 -34q1 -23 -18 -33q-5 -1 -13 -3q-2 0 -34 17q-25 14 -53 14q-46 1 -64 -4q-35 -9 -53 -48q-6 -19 -7 -36q-1 -25 8 -44q12 -23 35 -23h153q23 0 24 -28q1 -19 -9 -25
q-1 -1 -17 -5h-161q-8 0 -20.5 -18.5t-12.5 -46.5q0 -44 29 -67q6 -6 24 -15q21 -4 72 -5q39 -1 56 8q20 16 31 24q33 7 35 -37q1 -20 -29 -40l-3 -2q-26 -17 -31.5 -19t-76.5 -3t-118 23q-60 30 -61 94q-1 38 10 68q5 13 29 62zM111 702q-24 -6 -36 -17q-25 -24 -18 -33
q11 -14 33 -37q13 -13 31 -16q0 -8 -6 -20q-5 -7 -26 -10q-4 0 -18 7l-18 6q-13 6 -19 18q-12 23 -17 49q-1 12 -2 35q0 56 35 78q15 9 28 9q28 0 40 -13.5t14 -30.5q0 -18 -21 -25zM299 549l-113 165q-5 7 -4 20q2 26 18 33.5t37 7.5q29 -3 35 -25l55 -192z" />
    <glyph glyph-name="trademark" unicode="&#x404;" 
d="M560 0q-15 5 -33 33q-7 11 -39 27q-5 2 -22 4q-11 0 -62 -36q-40 -28 -116 -28q-224 0 -226 253q-1 111 65 179q62 64 185 65q82 1 123 -30q45 -34 53 -34q4 0 21 10q8 9 33 31q15 9 33 20q5 3 27 3q28 0 32 -35q0 -6 -9 -12q-34 -17 -64 -54q-24 -30 -25 -143
q0 -55 25 -110t66 -91q4 -3 4 -8q0 -10 -21 -27q-28 -24 -50 -17zM151 234q3 -45 20 -80t37 -53q8 -8 31 -21q31 -10 40 -10q95 0 133 56t40 140q2 48 -30 94q-42 62 -114 63q-29 1 -74 -18q-27 -11 -44 -31q-29 -33 -36 -94q-2 -18 -3 -46zM509 750q-8 -24 -43 -49
q-30 -21 -63 -21q-20 0 -77 33q-18 6 -44 16q-11 6 -23 6q-61 0 -86 -53l-22 36q27 73 109 75q21 1 73 -30.5t70 -33.5q26 0 50.5 16.5t33.5 40.5zM351 640q-28 -7 -39 -17q-5 -4 -7 -18t1.5 -18.5t10.5 -7t16 -12.5q13 -13 31 -16q0 -8 -6 -20q-5 -7 -26 -10q-4 0 -18 7
l-18 6q-13 6 -19 18q-7 7 -17 29q0 8 -2 25q0 39 10 59q3 5 25 19q15 9 28 9q29 0 41 -14q6 -4 13 -20q0 -10 -24 -19zM330 -64v-115q25 -7 30 -10q13 -6 23 -21q4 -4 -10 -10q-11 -1 -37 -6q-20 0 -44 6q-14 3 -33 14v142q0 12 37 12q34 0 34 -12z" />
    <glyph glyph-name="acute" unicode="&#xab;" horiz-adv-x="346" 
d="M89 -95v799h11v-799h-11zM245 66l6 -178l-5 -4q-43 3 -97 4h-61q-9 -1 -21 -2.5t-15 -1.5l-5 4v25l5 5h35q66 0 70 32.5t4 115.5v520q0 47 -3 75q-4 36 -71 36h-35l-5 5v25l5 4q56 -4 97 -4h65l32 4l5 -4l-6 -178v-483z" />
    <glyph glyph-name="notequal" unicode="&#x2260;" horiz-adv-x="537" 
d="M260 182q-64 -1 -129 41q-74 47 -67 109q18 -10 29 -15q98 -84 167 -85q34 0 111 37t87 63q6 -50 -55.5 -99.5t-142.5 -50.5z" />
    <glyph glyph-name="AE" unicode="&#xae;" horiz-adv-x="597" 
d="M321 496q82 1 134 -27q57 -31 60 -79q2 -28 5 -90q3 -93 5 -324v-144q0 -10 -12 -17q-8 -4 -35 -7q-19 0 -31.5 7t-12.5 17l8 288q2 116 2 176v87q0 25 -49 43q-39 13 -71 14q-26 0 -81.5 -19.5t-54.5 -42.5q2 -19 4 -62q4 -98 5 -217l1 -95q0 -5 -12 -11q-2 -1 -40 -4
q-20 0 -32.5 4t-12.5 13l10 405q1 15 -19 24q-16 7 -33 8q-9 0 -39 -17q0 4 -3 19q27 48 57 51q13 0 41.5 -17t49.5 -15q24 2 75 17q47 15 81 15zM271 558l55 192q6 22 35 25q21 0 37 -7.5t18 -33.5q1 -13 -4 -20l-113 -165z" />
    <glyph glyph-name="AE" unicode="&#xc6;" horiz-adv-x="597" 
d="M321 496q82 1 134 -27q57 -31 60 -79q2 -28 5 -90q3 -93 5 -324v-144q0 -10 -12 -17q-8 -4 -35 -7q-19 0 -31.5 7t-12.5 17l8 288q2 116 2 176v87q0 25 -49 43q-39 13 -71 14q-26 0 -81.5 -19.5t-54.5 -42.5q2 -19 4 -62q4 -98 5 -217l1 -95q0 -5 -12 -11q-2 -1 -40 -4
q-20 0 -32.5 4t-12.5 13l10 405q1 15 -19 24q-16 7 -33 8q-9 0 -39 -17q0 4 -3 19q27 48 57 51q13 0 41.5 -17t49.5 -15q24 2 75 17q47 15 81 15zM271 558l55 192q6 22 35 25q21 0 37 -7.5t18 -33.5q1 -13 -4 -20l-113 -165z" />
    <glyph glyph-name="Oslash" unicode="&#xd8;" horiz-adv-x="597" 
d="M321 496q82 1 134 -27q57 -31 60 -79q2 -28 5 -90q3 -93 5 -324v-144q0 -10 -12 -17q-8 -4 -35 -7q-19 0 -31.5 7t-12.5 17l8 288q2 116 2 176v87q0 25 -49 43q-39 13 -71 14q-26 0 -81.5 -19.5t-54.5 -42.5q2 -19 4 -62q4 -98 5 -217l1 -95q0 -5 -12 -11q-2 -1 -40 -4
q-20 0 -32.5 4t-12.5 13l10 405q1 15 -19 24q-16 7 -33 8q-9 0 -39 -17q0 4 -3 19q27 48 57 51q13 0 41.5 -17t49.5 -15q24 2 75 17q47 15 81 15zM309 549l-113 165q-5 7 -4 20q2 26 18 33.5t37 7.5q29 -3 35 -25l55 -192z" />
    <glyph glyph-name="Oslash" unicode="&#x407;" horiz-adv-x="597" 
d="M321 496q82 1 134 -27q57 -31 60 -79q2 -28 5 -90q3 -93 5 -324v-144q0 -10 -12 -17q-8 -4 -35 -7q-19 0 -31.5 7t-12.5 17l8 288q2 116 2 176v87q0 25 -49 43q-39 13 -71 14q-26 0 -81.5 -19.5t-54.5 -42.5q2 -19 4 -62q4 -98 5 -217l1 -95q0 -5 -12 -11q-2 -1 -40 -4
q-20 0 -32.5 4t-12.5 13l10 405q1 15 -19 24q-16 7 -33 8q-9 0 -39 -17q0 4 -3 19q27 48 57 51q13 0 41.5 -17t49.5 -15q24 2 75 17q47 15 81 15zM309 549l-113 165q-5 7 -4 20q2 26 18 33.5t37 7.5q29 -3 35 -25l55 -192z" />
    <glyph glyph-name="infinity" unicode="&#xb0;" horiz-adv-x="597" 
d="M321 496q82 1 134 -27q57 -31 60 -79q2 -28 5 -90q3 -93 5 -324v-144q0 -10 -12 -17q-8 -4 -35 -7q-19 0 -31.5 7t-12.5 17l8 288q2 116 2 176v87q0 25 -49 43q-39 13 -71 14q-26 0 -81.5 -19.5t-54.5 -42.5q2 -19 4 -62q4 -98 5 -217l1 -95q0 -5 -12 -11q-2 -1 -40 -4
q-20 0 -32.5 4t-12.5 13l10 405q1 15 -19 24q-16 7 -33 8q-9 0 -39 -17q0 4 -3 19q27 48 57 51q13 0 41.5 -17t49.5 -15q24 2 75 17q47 15 81 15zM481 655q-12 -34 -41.5 -56t-64.5 -22q-20 0 -77 33q-52 30 -67 30q-61 0 -86 -53l-22 41q27 73 109 75q21 1 73 -30.5
t70 -33.5q26 0 50.5 16.5t33.5 40.5z" />
    <glyph glyph-name="infinity" unicode="&#x221e;" horiz-adv-x="597" 
d="M321 496q82 1 134 -27q57 -31 60 -79q2 -28 5 -90q3 -93 5 -324v-144q0 -10 -12 -17q-8 -4 -35 -7q-19 0 -31.5 7t-12.5 17l8 288q2 116 2 176v87q0 25 -49 43q-39 13 -71 14q-26 0 -81.5 -19.5t-54.5 -42.5q2 -19 4 -62q4 -98 5 -217l1 -95q0 -5 -12 -11q-2 -1 -40 -4
q-20 0 -32.5 4t-12.5 13l10 405q1 15 -19 24q-16 7 -33 8q-9 0 -39 -17q0 4 -3 19q27 48 57 51q13 0 41.5 -17t49.5 -15q24 2 75 17q47 15 81 15zM481 655q-12 -34 -41.5 -56t-64.5 -22q-20 0 -77 33q-52 30 -67 30q-61 0 -86 -53l-22 41q27 73 109 75q21 1 73 -30.5
t70 -33.5q26 0 50.5 16.5t33.5 40.5z" />
    <glyph glyph-name="plusminus" unicode="&#xb1;" horiz-adv-x="597" 
d="M321 496q82 1 134 -27q57 -31 60 -79q2 -28 5 -90q3 -93 5 -324v-144q0 -10 -12 -17q-8 -4 -35 -7q-19 0 -31.5 7t-12.5 17l8 288q2 116 2 176v87q0 25 -49 43q-39 13 -71 14q-26 0 -81.5 -19.5t-54.5 -42.5q2 -19 4 -62q4 -98 5 -217l1 -95q0 -5 -12 -11q-2 -1 -40 -4
q-20 0 -32.5 4t-12.5 13l10 405q1 15 -19 24q-16 7 -33 8q-9 0 -39 -17q0 4 -3 19q27 48 57 51q13 0 41.5 -17t49.5 -15q24 2 75 17q47 15 81 15zM248 727q2 17 14 30.5t40 13.5q34 0 53 -38q10 -20 10 -49q-1 -11 -2 -35q-5 -26 -17 -49q-6 -12 -19 -18l-18 -6
q-14 -7 -18 -7q-21 3 -26 10q-6 12 -6 20q7 -1 31 16q22 23 33 37q7 9 -18 33q-12 11 -34.5 17.5t-22.5 24.5z" />
    <glyph glyph-name="lessequal" unicode="&#x406;" horiz-adv-x="597" 
d="M321 496q82 1 134 -27q57 -31 60 -79q2 -28 5 -90q3 -93 5 -324v-144q0 -10 -12 -17q-8 -4 -35 -7q-19 0 -31.5 7t-12.5 17l8 288q2 116 2 176v87q0 25 -49 43q-39 13 -71 14q-26 0 -81.5 -19.5t-54.5 -42.5q2 -19 4 -62q4 -98 5 -217l1 -95q0 -5 -12 -11q-2 -1 -40 -4
q-20 0 -32.5 4t-12.5 13l10 405q1 15 -19 24q-16 7 -33 8q-9 0 -39 -17q0 4 -3 19q27 48 57 51q13 0 41.5 -17t49.5 -15q24 2 75 17q47 15 81 15zM355 702q-24 -6 -36 -17q-25 -24 -18 -33q11 -14 33 -37q13 -13 31 -16q0 -8 -6 -20q-5 -7 -26 -10q-4 0 -18 7l-18 6
q-13 6 -19 18q-12 23 -17 49q-1 12 -2 35q0 56 35 78q15 9 28 9q28 0 40 -13.5t14 -30.5q0 -18 -21 -25z" />
    <glyph glyph-name="lessequal" unicode="&#x2264;" horiz-adv-x="597" 
d="M321 496q82 1 134 -27q57 -31 60 -79q2 -28 5 -90q3 -93 5 -324v-144q0 -10 -12 -17q-8 -4 -35 -7q-19 0 -31.5 7t-12.5 17l8 288q2 116 2 176v87q0 25 -49 43q-39 13 -71 14q-26 0 -81.5 -19.5t-54.5 -42.5q2 -19 4 -62q4 -98 5 -217l1 -95q0 -5 -12 -11q-2 -1 -40 -4
q-20 0 -32.5 4t-12.5 13l10 405q1 15 -19 24q-16 7 -33 8q-9 0 -39 -17q0 4 -3 19q27 48 57 51q13 0 41.5 -17t49.5 -15q24 2 75 17q47 15 81 15zM355 702q-24 -6 -36 -17q-25 -24 -18 -33q11 -14 33 -37q13 -13 31 -16q0 -8 -6 -20q-5 -7 -26 -10q-4 0 -18 7l-18 6
q-13 6 -19 18q-12 23 -17 49q-1 12 -2 35q0 56 35 78q15 9 28 9q28 0 40 -13.5t14 -30.5q0 -18 -21 -25z" />
    <glyph glyph-name="greaterequal" unicode="&#x456;" horiz-adv-x="597" 
d="M321 496q82 1 134 -27q57 -31 60 -79q2 -28 5 -90q3 -93 5 -324v-144q0 -10 -12 -17q-8 -4 -35 -7q-19 0 -31.5 7t-12.5 17l8 288q2 116 2 176v87q0 25 -49 43q-39 13 -71 14q-26 0 -81.5 -19.5t-54.5 -42.5q2 -19 4 -62q4 -98 5 -217l1 -95q0 -5 -12 -11q-2 -1 -40 -4
q-20 0 -32.5 4t-12.5 13l10 405q1 15 -19 24q-16 7 -33 8q-9 0 -39 -17q0 4 -3 19q27 48 57 51q13 0 41.5 -17t49.5 -15q24 2 75 17q47 15 81 15zM319 558l55 192q6 22 35 25q21 0 37 -7.5t18 -33.5q1 -13 -4 -20l-113 -165zM186 727q2 17 14 30.5t40 13.5q34 0 53 -38
q10 -20 10 -49q-1 -11 -2 -35q-5 -26 -17 -49q-6 -12 -19 -18l-18 -6q-14 -7 -18 -7q-21 3 -26 10q-6 12 -6 20q7 -1 31 16q22 23 33 37q7 9 -18 33q-12 11 -34.5 17.5t-22.5 24.5z" />
    <glyph glyph-name="greaterequal" unicode="&#x2265;" horiz-adv-x="597" 
d="M321 496q82 1 134 -27q57 -31 60 -79q2 -28 5 -90q3 -93 5 -324v-144q0 -10 -12 -17q-8 -4 -35 -7q-19 0 -31.5 7t-12.5 17l8 288q2 116 2 176v87q0 25 -49 43q-39 13 -71 14q-26 0 -81.5 -19.5t-54.5 -42.5q2 -19 4 -62q4 -98 5 -217l1 -95q0 -5 -12 -11q-2 -1 -40 -4
q-20 0 -32.5 4t-12.5 13l10 405q1 15 -19 24q-16 7 -33 8q-9 0 -39 -17q0 4 -3 19q27 48 57 51q13 0 41.5 -17t49.5 -15q24 2 75 17q47 15 81 15zM319 558l55 192q6 22 35 25q21 0 37 -7.5t18 -33.5q1 -13 -4 -20l-113 -165zM186 727q2 17 14 30.5t40 13.5q34 0 53 -38
q10 -20 10 -49q-1 -11 -2 -35q-5 -26 -17 -49q-6 -12 -19 -18l-18 -6q-14 -7 -18 -7q-21 3 -26 10q-6 12 -6 20q7 -1 31 16q22 23 33 37q7 9 -18 33q-12 11 -34.5 17.5t-22.5 24.5z" />
    <glyph glyph-name="yen" unicode="&#xa5;" horiz-adv-x="597" 
d="M321 496q82 1 134 -27q57 -31 60 -79q2 -28 5 -90q3 -93 5 -324v-144q0 -10 -12 -17q-8 -4 -35 -7q-19 0 -31.5 7t-12.5 17l8 288q2 116 2 176v87q0 25 -49 43q-39 13 -71 14q-26 0 -81.5 -19.5t-54.5 -42.5q2 -19 4 -62q4 -98 5 -217l1 -95q0 -5 -12 -11q-2 -1 -40 -4
q-20 0 -32.5 4t-12.5 13l10 405q1 15 -19 24q-16 7 -33 8q-9 0 -39 -17q0 4 -3 19q27 48 57 51q13 0 41.5 -17t49.5 -15q24 2 75 17q47 15 81 15zM233 702q-24 -6 -36 -17q-25 -24 -18 -33q11 -14 33 -37q13 -13 31 -16q0 -8 -6 -20q-5 -7 -26 -10q-4 0 -18 7l-18 6
q-13 6 -19 18q-12 23 -17 49q-1 12 -2 35q0 56 35 78q15 9 28 9q28 0 40 -13.5t14 -30.5q0 -18 -21 -25zM343 558l55 192q6 22 35 25q21 0 37 -7.5t18 -33.5q1 -13 -4 -20l-113 -165z" />
    <glyph glyph-name="yen" unicode="&#x491;" horiz-adv-x="597" 
d="M321 496q82 1 134 -27q57 -31 60 -79q2 -28 5 -90q3 -93 5 -324v-144q0 -10 -12 -17q-8 -4 -35 -7q-19 0 -31.5 7t-12.5 17l8 288q2 116 2 176v87q0 25 -49 43q-39 13 -71 14q-26 0 -81.5 -19.5t-54.5 -42.5q2 -19 4 -62q4 -98 5 -217l1 -95q0 -5 -12 -11q-2 -1 -40 -4
q-20 0 -32.5 4t-12.5 13l10 405q1 15 -19 24q-16 7 -33 8q-9 0 -39 -17q0 4 -3 19q27 48 57 51q13 0 41.5 -17t49.5 -15q24 2 75 17q47 15 81 15zM233 702q-24 -6 -36 -17q-25 -24 -18 -33q11 -14 33 -37q13 -13 31 -16q0 -8 -6 -20q-5 -7 -26 -10q-4 0 -18 7l-18 6
q-13 6 -19 18q-12 23 -17 49q-1 12 -2 35q0 56 35 78q15 9 28 9q28 0 40 -13.5t14 -30.5q0 -18 -21 -25zM343 558l55 192q6 22 35 25q21 0 37 -7.5t18 -33.5q1 -13 -4 -20l-113 -165z" />
    <glyph glyph-name="mu" unicode="&#xb5;" horiz-adv-x="597" 
d="M321 496q82 1 134 -27q57 -31 60 -79q2 -28 5 -90q3 -93 5 -324v-144q0 -10 -12 -17q-8 -4 -35 -7q-19 0 -31.5 7t-12.5 17l8 288q2 116 2 176v87q0 25 -49 43q-39 13 -71 14q-26 0 -81.5 -19.5t-54.5 -42.5q2 -19 4 -62q4 -98 5 -217l1 -95q0 -5 -12 -11q-2 -1 -40 -4
q-20 0 -32.5 4t-12.5 13l10 405q1 15 -19 24q-16 7 -33 8q-9 0 -39 -17q0 4 -3 19q27 48 57 51q13 0 41.5 -17t49.5 -15q24 2 75 17q47 15 81 15zM421 555l-113 165q-5 7 -4 20q2 26 18 33.5t37 7.5q29 -3 35 -25l55 -192zM150 733q2 17 14 30.5t40 13.5q34 0 53 -38
q10 -20 10 -49q-1 -11 -2 -35q-5 -26 -17 -49q-6 -12 -19 -18l-18 -6q-14 -7 -18 -7q-21 3 -26 10q-6 12 -6 20q7 -1 31 16q22 23 33 37q7 9 -18 33q-12 11 -34.5 17.5t-22.5 24.5z" />
    <glyph glyph-name="partialdiff" unicode="&#xb6;" horiz-adv-x="597" 
d="M321 496q82 1 134 -27q57 -31 60 -79q2 -28 5 -90q3 -93 5 -324v-144q0 -10 -12 -17q-8 -4 -35 -7q-19 0 -31.5 7t-12.5 17l8 288q2 116 2 176v87q0 25 -49 43q-39 13 -71 14q-26 0 -81.5 -19.5t-54.5 -42.5q2 -19 4 -62q4 -98 5 -217l1 -95q0 -5 -12 -11q-2 -1 -40 -4
q-20 0 -32.5 4t-12.5 13l10 405q1 15 -19 24q-16 7 -33 8q-9 0 -39 -17q0 4 -3 19q27 48 57 51q13 0 41.5 -17t49.5 -15q24 2 75 17q47 15 81 15zM207 714q-24 -6 -36 -17q-25 -24 -18 -33q11 -14 33 -37q13 -13 31 -16q0 -8 -6 -20q-5 -7 -26 -10q-4 0 -18 7l-18 6
q-13 6 -19 18q-12 23 -17 49q-1 12 -2 35q0 56 35 78q15 9 28 9q28 0 40 -13.5t14 -30.5q0 -18 -21 -25zM395 561l-113 165q-5 7 -4 20q2 26 18 33.5t37 7.5q29 -3 35 -25l55 -192z" />
    <glyph glyph-name="partialdiff" unicode="&#x2202;" horiz-adv-x="597" 
d="M321 496q82 1 134 -27q57 -31 60 -79q2 -28 5 -90q3 -93 5 -324v-144q0 -10 -12 -17q-8 -4 -35 -7q-19 0 -31.5 7t-12.5 17l8 288q2 116 2 176v87q0 25 -49 43q-39 13 -71 14q-26 0 -81.5 -19.5t-54.5 -42.5q2 -19 4 -62q4 -98 5 -217l1 -95q0 -5 -12 -11q-2 -1 -40 -4
q-20 0 -32.5 4t-12.5 13l10 405q1 15 -19 24q-16 7 -33 8q-9 0 -39 -17q0 4 -3 19q27 48 57 51q13 0 41.5 -17t49.5 -15q24 2 75 17q47 15 81 15zM207 714q-24 -6 -36 -17q-25 -24 -18 -33q11 -14 33 -37q13 -13 31 -16q0 -8 -6 -20q-5 -7 -26 -10q-4 0 -18 7l-18 6
q-13 6 -19 18q-12 23 -17 49q-1 12 -2 35q0 56 35 78q15 9 28 9q28 0 40 -13.5t14 -30.5q0 -18 -21 -25zM395 561l-113 165q-5 7 -4 20q2 26 18 33.5t37 7.5q29 -3 35 -25l55 -192z" />
    <glyph glyph-name="summation" unicode="&#xb7;" horiz-adv-x="597" 
d="M321 496q82 1 134 -27q57 -31 60 -79q2 -28 5 -90q3 -93 5 -324v-144q0 -10 -12 -17q-8 -4 -35 -7q-19 0 -31.5 7t-12.5 17l8 288q2 116 2 176v87q0 25 -49 43q-39 13 -71 14q-26 0 -81.5 -19.5t-54.5 -42.5q2 -19 4 -62q4 -98 5 -217l1 -95q0 -5 -12 -11q-2 -1 -40 -4
q-20 0 -32.5 4t-12.5 13l10 405q1 15 -19 24q-16 7 -33 8q-9 0 -39 -17q0 4 -3 19q27 48 57 51q13 0 41.5 -17t49.5 -15q24 2 75 17q47 15 81 15zM177 816q6 -16 10 -21q5 -9 17 -16q26 -16 39 -16q14 1 25 4q21 6 43 20q52 33 75 32q82 -2 109 -75l-22 -36q-25 53 -86 53
q-12 0 -23 -6q-10 -1 -42 -14q-26 -15 -47 -24q-30 -13 -50 -13q-14 0 -24 7.5t-21 15.5q-34 24 -43 49zM271 685q1 6 12.5 19t41.5 13q17 0 28 -7q9 -3 25 -19q10 -20 10 -59q-1 -8 -2 -25q-2 -8 -6 -13q-7 -8 -11 -16q-6 -12 -19 -18l-18 -6q-14 -7 -18 -7q-21 3 -26 10
q-6 12 -6 20q7 -1 31 16q9 9 16 12t10.5 7.5t1.5 18.5q-2 13 -7 18q-11 10 -39 17q-24 9 -24 19z" />
    <glyph glyph-name="summation" unicode="&#x2211;" horiz-adv-x="597" 
d="M321 496q82 1 134 -27q57 -31 60 -79q2 -28 5 -90q3 -93 5 -324v-144q0 -10 -12 -17q-8 -4 -35 -7q-19 0 -31.5 7t-12.5 17l8 288q2 116 2 176v87q0 25 -49 43q-39 13 -71 14q-26 0 -81.5 -19.5t-54.5 -42.5q2 -19 4 -62q4 -98 5 -217l1 -95q0 -5 -12 -11q-2 -1 -40 -4
q-20 0 -32.5 4t-12.5 13l10 405q1 15 -19 24q-16 7 -33 8q-9 0 -39 -17q0 4 -3 19q27 48 57 51q13 0 41.5 -17t49.5 -15q24 2 75 17q47 15 81 15zM177 816q6 -16 10 -21q5 -9 17 -16q26 -16 39 -16q14 1 25 4q21 6 43 20q52 33 75 32q82 -2 109 -75l-22 -36q-25 53 -86 53
q-12 0 -23 -6q-10 -1 -42 -14q-26 -15 -47 -24q-30 -13 -50 -13q-14 0 -24 7.5t-21 15.5q-34 24 -43 49zM271 685q1 6 12.5 19t41.5 13q17 0 28 -7q9 -3 25 -19q10 -20 10 -59q-1 -8 -2 -25q-2 -8 -6 -13q-7 -8 -11 -16q-6 -12 -19 -18l-18 -6q-14 -7 -18 -7q-21 3 -26 10
q-6 12 -6 20q7 -1 31 16q9 9 16 12t10.5 7.5t1.5 18.5q-2 13 -7 18q-11 10 -39 17q-24 9 -24 19z" />
    <glyph glyph-name="product" unicode="&#x451;" horiz-adv-x="597" 
d="M321 496q82 1 134 -27q57 -31 60 -79q2 -28 5 -90q3 -93 5 -324v-144q0 -10 -12 -17q-8 -4 -35 -7q-19 0 -31.5 7t-12.5 17l8 288q2 116 2 176v87q0 25 -49 43q-39 13 -71 14q-26 0 -81.5 -19.5t-54.5 -42.5q2 -19 4 -62q4 -98 5 -217l1 -95q0 -5 -12 -11q-2 -1 -40 -4
q-20 0 -32.5 4t-12.5 13l10 405q1 15 -19 24q-16 7 -33 8q-9 0 -39 -17q0 4 -3 19q27 48 57 51q13 0 41.5 -17t49.5 -15q24 2 75 17q47 15 81 15zM491 761q-9 -25 -43 -49q-30 -21 -63 -21q-20 0 -77 33q-18 6 -44 16q-11 6 -23 6q-61 0 -86 -53l-22 36q27 73 109 75
q21 1 73 -30.5t70 -33.5q26 0 50.5 16.5t33.5 40.5zM333 651q-28 -7 -39 -17q-5 -5 -7 -18q-2 -14 1.5 -18.5t10.5 -7.5t16 -12q13 -13 31 -16q0 -8 -6 -20q-5 -7 -26 -10q-4 0 -18 7l-18 6q-13 6 -19 18q-7 7 -17 29q-1 7 -2 25q0 39 10 59q3 5 25 19q15 9 28 9
q28 0 41 -14q6 -5 13 -20q0 -10 -24 -19z" />
    <glyph glyph-name="product" unicode="&#x220f;" horiz-adv-x="597" 
d="M321 496q82 1 134 -27q57 -31 60 -79q2 -28 5 -90q3 -93 5 -324v-144q0 -10 -12 -17q-8 -4 -35 -7q-19 0 -31.5 7t-12.5 17l8 288q2 116 2 176v87q0 25 -49 43q-39 13 -71 14q-26 0 -81.5 -19.5t-54.5 -42.5q2 -19 4 -62q4 -98 5 -217l1 -95q0 -5 -12 -11q-2 -1 -40 -4
q-20 0 -32.5 4t-12.5 13l10 405q1 15 -19 24q-16 7 -33 8q-9 0 -39 -17q0 4 -3 19q27 48 57 51q13 0 41.5 -17t49.5 -15q24 2 75 17q47 15 81 15zM491 761q-9 -25 -43 -49q-30 -21 -63 -21q-20 0 -77 33q-18 6 -44 16q-11 6 -23 6q-61 0 -86 -53l-22 36q27 73 109 75
q21 1 73 -30.5t70 -33.5q26 0 50.5 16.5t33.5 40.5zM333 651q-28 -7 -39 -17q-5 -5 -7 -18q-2 -14 1.5 -18.5t10.5 -7.5t16 -12q13 -13 31 -16q0 -8 -6 -20q-5 -7 -26 -10q-4 0 -18 7l-18 6q-13 6 -19 18q-7 7 -17 29q-1 7 -2 25q0 39 10 59q3 5 25 19q15 9 28 9
q28 0 41 -14q6 -5 13 -20q0 -10 -24 -19z" />
    <glyph glyph-name="pi" unicode="&#x3c0;" horiz-adv-x="597" 
d="M321 496q82 1 134 -27q57 -31 60 -79q2 -28 5 -90q3 -93 5 -324v-144q0 -10 -12 -17q-7 -5 -35 -7q-19 0 -31.5 7t-12.5 17l8 288q2 116 2 176v87q0 25 -49 43q-39 13 -71 14q-26 1 -81.5 -19t-54.5 -43q2 -18 4 -62q4 -98 5 -217l1 -95q0 -5 -12 -11q-2 -1 -40 -4
q-19 0 -32 4t-13 13l10 405q0 12 -17 23q-13 8 -35 9q-9 0 -39 -17q0 4 -3 19q27 48 57 51q13 0 41.5 -17t49.5 -15q24 2 75 18q47 14 81 14zM271 558l55 192q6 22 35 25q21 0 37 -7.5t18 -33.5q1 -13 -4 -20l-113 -165zM330 -64v-115q25 -7 30 -10q13 -6 23 -21
q4 -4 -10 -10q-11 -1 -37 -6q-20 0 -44 6q-14 3 -33 14v142q0 12 37 12q34 0 34 -12z" />
    <glyph glyph-name="pi" unicode="&#x2116;" horiz-adv-x="597" 
d="M321 496q82 1 134 -27q57 -31 60 -79q2 -28 5 -90q3 -93 5 -324v-144q0 -10 -12 -17q-7 -5 -35 -7q-19 0 -31.5 7t-12.5 17l8 288q2 116 2 176v87q0 25 -49 43q-39 13 -71 14q-26 1 -81.5 -19t-54.5 -43q2 -18 4 -62q4 -98 5 -217l1 -95q0 -5 -12 -11q-2 -1 -40 -4
q-19 0 -32 4t-13 13l10 405q0 12 -17 23q-13 8 -35 9q-9 0 -39 -17q0 4 -3 19q27 48 57 51q13 0 41.5 -17t49.5 -15q24 2 75 18q47 14 81 14zM271 558l55 192q6 22 35 25q21 0 37 -7.5t18 -33.5q1 -13 -4 -20l-113 -165zM330 -64v-115q25 -7 30 -10q13 -6 23 -21
q4 -4 -10 -10q-11 -1 -37 -6q-20 0 -44 6q-14 3 -33 14v142q0 12 37 12q34 0 34 -12z" />
    <glyph glyph-name="integral" unicode="&#x454;" horiz-adv-x="597" 
d="M321 496q82 1 134 -27q57 -31 60 -79q2 -28 5 -90q3 -93 5 -324v-144q0 -10 -12 -17q-7 -5 -35 -7q-19 0 -31.5 7t-12.5 17l8 288q2 116 2 176v87q0 25 -49 43q-39 13 -71 14q-26 1 -81.5 -19t-54.5 -43q2 -18 4 -62q4 -98 5 -217l1 -95q0 -5 -12 -11q-2 -1 -40 -4
q-19 0 -32 4t-13 13l10 405q0 12 -17 23q-13 8 -35 9q-9 0 -39 -17q0 4 -3 19q27 48 57 51q13 0 41.5 -17t49.5 -15q24 2 75 18q47 14 81 14zM309 549l-113 165q-5 7 -4 20q2 26 18 33.5t37 7.5q29 -3 35 -25l55 -192zM330 -64v-115q25 -7 30 -10q13 -6 23 -21q4 -4 -10 -10
q-11 -1 -37 -6q-20 0 -44 6q-14 3 -33 14v142q0 12 37 12q34 0 34 -12z" />
    <glyph glyph-name="integral" unicode="&#x222b;" horiz-adv-x="597" 
d="M321 496q82 1 134 -27q57 -31 60 -79q2 -28 5 -90q3 -93 5 -324v-144q0 -10 -12 -17q-7 -5 -35 -7q-19 0 -31.5 7t-12.5 17l8 288q2 116 2 176v87q0 25 -49 43q-39 13 -71 14q-26 1 -81.5 -19t-54.5 -43q2 -18 4 -62q4 -98 5 -217l1 -95q0 -5 -12 -11q-2 -1 -40 -4
q-19 0 -32 4t-13 13l10 405q0 12 -17 23q-13 8 -35 9q-9 0 -39 -17q0 4 -3 19q27 48 57 51q13 0 41.5 -17t49.5 -15q24 2 75 18q47 14 81 14zM309 549l-113 165q-5 7 -4 20q2 26 18 33.5t37 7.5q29 -3 35 -25l55 -192zM330 -64v-115q25 -7 30 -10q13 -6 23 -21q4 -4 -10 -10
q-11 -1 -37 -6q-20 0 -44 6q-14 3 -33 14v142q0 12 37 12q34 0 34 -12z" />
    <glyph glyph-name="ordfeminine" unicode="&#xaa;" horiz-adv-x="597" 
d="M321 496q82 1 134 -27q57 -31 60 -79q2 -28 5 -90q3 -93 5 -324v-144q0 -10 -12 -17q-7 -5 -35 -7q-19 0 -31.5 7t-12.5 17l8 288q2 116 2 176v87q0 25 -49 43q-39 13 -71 14q-26 1 -81.5 -19t-54.5 -43q2 -18 4 -62q4 -98 5 -217l1 -95q0 -5 -12 -11q-2 -1 -40 -4
q-19 0 -32 4t-13 13l10 405q0 12 -17 23q-13 8 -35 9q-9 0 -39 -17q0 4 -3 19q27 48 57 51q13 0 41.5 -17t49.5 -15q24 2 75 18q47 14 81 14zM491 655q-12 -34 -41.5 -56t-64.5 -22q-20 0 -77 33q-52 30 -67 30q-61 0 -86 -53l-22 41q27 73 109 75q21 1 73 -30.5t70 -33.5
q26 0 50.5 16.5t33.5 40.5zM330 -64v-115q25 -7 30 -10q13 -6 23 -21q4 -4 -10 -10q-11 -1 -37 -6q-20 0 -44 6q-14 3 -33 14v142q0 12 37 12q34 0 34 -12z" />
    <glyph glyph-name="ordfeminine" unicode="&#xbb;" horiz-adv-x="597" 
d="M321 496q82 1 134 -27q57 -31 60 -79q2 -28 5 -90q3 -93 5 -324v-144q0 -10 -12 -17q-7 -5 -35 -7q-19 0 -31.5 7t-12.5 17l8 288q2 116 2 176v87q0 25 -49 43q-39 13 -71 14q-26 1 -81.5 -19t-54.5 -43q2 -18 4 -62q4 -98 5 -217l1 -95q0 -5 -12 -11q-2 -1 -40 -4
q-19 0 -32 4t-13 13l10 405q0 12 -17 23q-13 8 -35 9q-9 0 -39 -17q0 4 -3 19q27 48 57 51q13 0 41.5 -17t49.5 -15q24 2 75 18q47 14 81 14zM491 655q-12 -34 -41.5 -56t-64.5 -22q-20 0 -77 33q-52 30 -67 30q-61 0 -86 -53l-22 41q27 73 109 75q21 1 73 -30.5t70 -33.5
q26 0 50.5 16.5t33.5 40.5zM330 -64v-115q25 -7 30 -10q13 -6 23 -21q4 -4 -10 -10q-11 -1 -37 -6q-20 0 -44 6q-14 3 -33 14v142q0 12 37 12q34 0 34 -12z" />
    <glyph glyph-name="ordmasculine" unicode="&#xba;" horiz-adv-x="597" 
d="M321 496q82 1 134 -27q57 -31 60 -79q2 -28 5 -90q3 -93 5 -324v-144q0 -10 -12 -17q-7 -5 -35 -7q-19 0 -31.5 7t-12.5 17l8 288q2 116 2 176v87q0 25 -49 43q-39 13 -71 14q-26 1 -81.5 -19t-54.5 -43q2 -18 4 -62q4 -98 5 -217l1 -95q0 -5 -12 -11q-2 -1 -40 -4
q-19 0 -32 4t-13 13l10 405q0 12 -17 23q-13 8 -35 9q-9 0 -39 -17q0 4 -3 19q27 48 57 51q13 0 41.5 -17t49.5 -15q24 2 75 18q47 14 81 14zM248 727q2 17 14 30.5t40 13.5q34 0 53 -38q10 -20 10 -49q0 -10 -2 -35q-5 -26 -17 -49q-6 -12 -19 -18l-18 -6q-14 -7 -18 -7
q-21 3 -26 10q-6 12 -6 20q7 -1 31 16q22 23 33 37q7 10 -18 33q-12 11 -34.5 18t-22.5 24zM330 -64v-115q25 -7 30 -10q13 -6 23 -21q4 -4 -10 -10q-11 -1 -37 -6q-20 0 -44 6q-14 3 -33 14v142q0 12 37 12q34 0 34 -12z" />
    <glyph glyph-name="ordmasculine" unicode="&#x458;" horiz-adv-x="597" 
d="M321 496q82 1 134 -27q57 -31 60 -79q2 -28 5 -90q3 -93 5 -324v-144q0 -10 -12 -17q-7 -5 -35 -7q-19 0 -31.5 7t-12.5 17l8 288q2 116 2 176v87q0 25 -49 43q-39 13 -71 14q-26 1 -81.5 -19t-54.5 -43q2 -18 4 -62q4 -98 5 -217l1 -95q0 -5 -12 -11q-2 -1 -40 -4
q-19 0 -32 4t-13 13l10 405q0 12 -17 23q-13 8 -35 9q-9 0 -39 -17q0 4 -3 19q27 48 57 51q13 0 41.5 -17t49.5 -15q24 2 75 18q47 14 81 14zM248 727q2 17 14 30.5t40 13.5q34 0 53 -38q10 -20 10 -49q0 -10 -2 -35q-5 -26 -17 -49q-6 -12 -19 -18l-18 -6q-14 -7 -18 -7
q-21 3 -26 10q-6 12 -6 20q7 -1 31 16q22 23 33 37q7 10 -18 33q-12 11 -34.5 18t-22.5 24zM330 -64v-115q25 -7 30 -10q13 -6 23 -21q4 -4 -10 -10q-11 -1 -37 -6q-20 0 -44 6q-14 3 -33 14v142q0 12 37 12q34 0 34 -12z" />
    <glyph glyph-name="Omega" unicode="&#x405;" horiz-adv-x="597" 
d="M321 496q82 1 134 -27q57 -31 60 -79q2 -28 5 -90q3 -93 5 -324v-144q0 -10 -12 -17q-7 -5 -35 -7q-19 0 -31.5 7t-12.5 17l8 288q2 116 2 176v87q0 25 -49 43q-39 13 -71 14q-26 1 -81.5 -19t-54.5 -43q2 -18 4 -62q4 -98 5 -217l1 -95q0 -5 -12 -11q-2 -1 -40 -4
q-19 0 -32 4t-13 13l10 405q0 12 -17 23q-13 8 -35 9q-9 0 -39 -17q0 4 -3 19q27 48 57 51q13 0 41.5 -17t49.5 -15q24 2 75 18q47 14 81 14zM345 702q-24 -6 -36 -17q-25 -23 -18 -33q11 -14 33 -37q13 -13 31 -16q0 -8 -6 -20q-5 -7 -26 -10q-4 0 -18 7l-18 6
q-13 6 -19 18q-12 23 -17 49q-1 13 -2 35q0 57 35 78q15 9 28 9q28 0 40 -13.5t14 -30.5q0 -17 -21 -25zM330 -64v-115q25 -7 30 -10q13 -6 23 -21q4 -4 -10 -10q-11 -1 -37 -6q-20 0 -44 6q-14 3 -33 14v142q0 12 37 12q34 0 34 -12z" />
    <glyph glyph-name="Omega" unicode="&#x2126;" horiz-adv-x="597" 
d="M321 496q82 1 134 -27q57 -31 60 -79q2 -28 5 -90q3 -93 5 -324v-144q0 -10 -12 -17q-7 -5 -35 -7q-19 0 -31.5 7t-12.5 17l8 288q2 116 2 176v87q0 25 -49 43q-39 13 -71 14q-26 1 -81.5 -19t-54.5 -43q2 -18 4 -62q4 -98 5 -217l1 -95q0 -5 -12 -11q-2 -1 -40 -4
q-19 0 -32 4t-13 13l10 405q0 12 -17 23q-13 8 -35 9q-9 0 -39 -17q0 4 -3 19q27 48 57 51q13 0 41.5 -17t49.5 -15q24 2 75 18q47 14 81 14zM345 702q-24 -6 -36 -17q-25 -23 -18 -33q11 -14 33 -37q13 -13 31 -16q0 -8 -6 -20q-5 -7 -26 -10q-4 0 -18 7l-18 6
q-13 6 -19 18q-12 23 -17 49q-1 13 -2 35q0 57 35 78q15 9 28 9q28 0 40 -13.5t14 -30.5q0 -17 -21 -25zM330 -64v-115q25 -7 30 -10q13 -6 23 -21q4 -4 -10 -10q-11 -1 -37 -6q-20 0 -44 6q-14 3 -33 14v142q0 12 37 12q34 0 34 -12z" />
    <glyph glyph-name="ae" unicode="&#xe6;" horiz-adv-x="597" 
d="M321 496q82 1 134 -27q57 -31 60 -79q2 -28 5 -90q3 -93 5 -324v-144q0 -10 -12 -17q-7 -5 -35 -7q-19 0 -31.5 7t-12.5 17l8 288q2 116 2 176v87q0 25 -49 43q-39 13 -71 14q-26 1 -81.5 -19t-54.5 -43q2 -18 4 -62q4 -98 5 -217l1 -95q0 -5 -12 -11q-2 -1 -40 -4
q-19 0 -32 4t-13 13l10 405q0 12 -17 23q-13 8 -35 9q-9 0 -39 -17q0 4 -3 19q27 48 57 51q13 0 41.5 -17t49.5 -15q24 2 75 18q47 14 81 14zM329 558l55 192q6 22 35 25q21 0 37 -7.5t18 -33.5q1 -13 -4 -20l-113 -165zM196 727q2 17 14 30.5t40 13.5q34 0 53 -38
q10 -20 10 -49q0 -10 -2 -35q-5 -26 -17 -49q-6 -12 -19 -18l-18 -6q-14 -7 -18 -7q-21 3 -26 10q-6 12 -6 20q7 -1 31 16q22 23 33 37q7 10 -18 33q-12 11 -34.5 18t-22.5 24zM330 -64v-115q25 -7 30 -10q13 -6 23 -21q4 -4 -10 -10q-11 -1 -37 -6q-20 0 -44 6
q-14 3 -33 14v142q0 12 37 12q34 0 34 -12z" />
    <glyph glyph-name="ae" unicode="&#x455;" horiz-adv-x="597" 
d="M321 496q82 1 134 -27q57 -31 60 -79q2 -28 5 -90q3 -93 5 -324v-144q0 -10 -12 -17q-7 -5 -35 -7q-19 0 -31.5 7t-12.5 17l8 288q2 116 2 176v87q0 25 -49 43q-39 13 -71 14q-26 1 -81.5 -19t-54.5 -43q2 -18 4 -62q4 -98 5 -217l1 -95q0 -5 -12 -11q-2 -1 -40 -4
q-19 0 -32 4t-13 13l10 405q0 12 -17 23q-13 8 -35 9q-9 0 -39 -17q0 4 -3 19q27 48 57 51q13 0 41.5 -17t49.5 -15q24 2 75 18q47 14 81 14zM329 558l55 192q6 22 35 25q21 0 37 -7.5t18 -33.5q1 -13 -4 -20l-113 -165zM196 727q2 17 14 30.5t40 13.5q34 0 53 -38
q10 -20 10 -49q0 -10 -2 -35q-5 -26 -17 -49q-6 -12 -19 -18l-18 -6q-14 -7 -18 -7q-21 3 -26 10q-6 12 -6 20q7 -1 31 16q22 23 33 37q7 10 -18 33q-12 11 -34.5 18t-22.5 24zM330 -64v-115q25 -7 30 -10q13 -6 23 -21q4 -4 -10 -10q-11 -1 -37 -6q-20 0 -44 6
q-14 3 -33 14v142q0 12 37 12q34 0 34 -12z" />
    <glyph glyph-name="oslash" unicode="&#xf8;" horiz-adv-x="597" 
d="M321 496q82 1 134 -27q57 -31 60 -79q2 -28 5 -90q3 -93 5 -324v-144q0 -10 -12 -17q-7 -5 -35 -7q-19 0 -31.5 7t-12.5 17l8 288q2 116 2 176v87q0 25 -49 43q-39 13 -71 14q-26 1 -81.5 -19t-54.5 -43q2 -18 4 -62q4 -98 5 -217l1 -95q0 -5 -12 -11q-2 -1 -40 -4
q-19 0 -32 4t-13 13l10 405q0 12 -17 23q-13 8 -35 9q-9 0 -39 -17q0 4 -3 19q27 48 57 51q13 0 41.5 -17t49.5 -15q24 2 75 18q47 14 81 14zM233 702q-24 -6 -36 -17q-25 -23 -18 -33q11 -14 33 -37q13 -13 31 -16q0 -8 -6 -20q-5 -7 -26 -10q-4 0 -18 7l-18 6
q-13 6 -19 18q-12 23 -17 49q0 13 -2 35q0 57 35 78q15 9 28 9q29 0 40.5 -13.5t13.5 -30.5q0 -17 -21 -25zM343 558l55 192q6 22 35 25q21 0 37 -7.5t18 -33.5q1 -13 -4 -20l-113 -165zM330 -64v-115q25 -7 30 -10q13 -6 23 -21q4 -4 -10 -10q-11 -1 -37 -6q-20 0 -44 6
q-14 3 -33 14v142q0 12 37 12q34 0 34 -12z" />
    <glyph glyph-name="oslash" unicode="&#x457;" horiz-adv-x="597" 
d="M321 496q82 1 134 -27q57 -31 60 -79q2 -28 5 -90q3 -93 5 -324v-144q0 -10 -12 -17q-7 -5 -35 -7q-19 0 -31.5 7t-12.5 17l8 288q2 116 2 176v87q0 25 -49 43q-39 13 -71 14q-26 1 -81.5 -19t-54.5 -43q2 -18 4 -62q4 -98 5 -217l1 -95q0 -5 -12 -11q-2 -1 -40 -4
q-19 0 -32 4t-13 13l10 405q0 12 -17 23q-13 8 -35 9q-9 0 -39 -17q0 4 -3 19q27 48 57 51q13 0 41.5 -17t49.5 -15q24 2 75 18q47 14 81 14zM233 702q-24 -6 -36 -17q-25 -23 -18 -33q11 -14 33 -37q13 -13 31 -16q0 -8 -6 -20q-5 -7 -26 -10q-4 0 -18 7l-18 6
q-13 6 -19 18q-12 23 -17 49q0 13 -2 35q0 57 35 78q15 9 28 9q29 0 40.5 -13.5t13.5 -30.5q0 -17 -21 -25zM343 558l55 192q6 22 35 25q21 0 37 -7.5t18 -33.5q1 -13 -4 -20l-113 -165zM330 -64v-115q25 -7 30 -10q13 -6 23 -21q4 -4 -10 -10q-11 -1 -37 -6q-20 0 -44 6
q-14 3 -33 14v142q0 12 37 12q34 0 34 -12z" />
    <glyph glyph-name="questiondown" unicode="&#xbf;" horiz-adv-x="597" 
d="M321 496q82 1 134 -27q57 -31 60 -79q2 -28 5 -90q3 -93 5 -324v-144q0 -10 -12 -17q-7 -5 -35 -7q-19 0 -31.5 7t-12.5 17l8 288q2 116 2 176v87q0 25 -49 43q-39 13 -71 14q-26 1 -81.5 -19t-54.5 -43q2 -18 4 -62q4 -98 5 -217l1 -95q0 -5 -12 -11q-2 -1 -40 -4
q-19 0 -32 4t-13 13l10 405q0 12 -17 23q-13 8 -35 9q-9 0 -39 -17q0 4 -3 19q27 48 57 51q13 0 41.5 -17t49.5 -15q24 2 75 18q47 14 81 14zM421 550l-113 165q-5 7 -4 20q2 26 18 33.5t37 7.5q29 -3 35 -25l55 -192zM150 728q2 17 14 30.5t40 13.5q34 0 53 -38
q10 -20 10 -49q0 -10 -2 -35q-5 -26 -17 -49q-6 -12 -19 -18l-18 -6q-14 -7 -18 -7q-21 3 -26 10q-6 12 -6 20q7 -1 31 16q22 23 33 37q7 10 -18 33q-12 11 -34.5 18t-22.5 24zM330 -64v-115q25 -7 30 -10q13 -6 23 -21q4 -4 -10 -10q-11 -1 -37 -6q-20 0 -44 6
q-14 3 -33 14v142q0 12 37 12q34 0 34 -12z" />
    <glyph glyph-name="questiondown" unicode="&#x410;" horiz-adv-x="597" 
d="M321 496q82 1 134 -27q57 -31 60 -79q2 -28 5 -90q3 -93 5 -324v-144q0 -10 -12 -17q-7 -5 -35 -7q-19 0 -31.5 7t-12.5 17l8 288q2 116 2 176v87q0 25 -49 43q-39 13 -71 14q-26 1 -81.5 -19t-54.5 -43q2 -18 4 -62q4 -98 5 -217l1 -95q0 -5 -12 -11q-2 -1 -40 -4
q-19 0 -32 4t-13 13l10 405q0 12 -17 23q-13 8 -35 9q-9 0 -39 -17q0 4 -3 19q27 48 57 51q13 0 41.5 -17t49.5 -15q24 2 75 18q47 14 81 14zM421 550l-113 165q-5 7 -4 20q2 26 18 33.5t37 7.5q29 -3 35 -25l55 -192zM150 728q2 17 14 30.5t40 13.5q34 0 53 -38
q10 -20 10 -49q0 -10 -2 -35q-5 -26 -17 -49q-6 -12 -19 -18l-18 -6q-14 -7 -18 -7q-21 3 -26 10q-6 12 -6 20q7 -1 31 16q22 23 33 37q7 10 -18 33q-12 11 -34.5 18t-22.5 24zM330 -64v-115q25 -7 30 -10q13 -6 23 -21q4 -4 -10 -10q-11 -1 -37 -6q-20 0 -44 6
q-14 3 -33 14v142q0 12 37 12q34 0 34 -12z" />
    <glyph glyph-name="exclamdown" unicode="&#xa1;" horiz-adv-x="597" 
d="M321 496q82 1 134 -27q57 -31 60 -79q2 -28 5 -90q3 -93 5 -324v-144q0 -10 -12 -17q-7 -5 -35 -7q-19 0 -31.5 7t-12.5 17l8 288q2 116 2 176v87q0 25 -49 43q-39 13 -71 14q-26 1 -81.5 -19t-54.5 -43q2 -18 4 -62q4 -98 5 -217l1 -95q0 -5 -12 -11q-2 -1 -40 -4
q-19 0 -32 4t-13 13l10 405q0 12 -17 23q-13 8 -35 9q-9 0 -39 -17q0 4 -3 19q27 48 57 51q13 0 41.5 -17t49.5 -15q24 2 75 18q47 14 81 14zM217 714q-24 -6 -36 -17q-25 -23 -18 -33q11 -14 33 -37q13 -13 31 -16q0 -8 -6 -20q-5 -7 -26 -10q-4 0 -18 7l-18 6
q-13 6 -19 18q-12 23 -17 49q0 13 -2 35q0 57 35 78q15 9 28 9q29 0 40.5 -13.5t13.5 -30.5q0 -17 -21 -25zM405 561l-113 165q-5 7 -4 20q2 26 18 33.5t37 7.5q29 -3 35 -25l55 -192zM330 -64v-115q25 -7 30 -10q13 -6 23 -21q4 -4 -10 -10q-11 -1 -37 -6q-20 0 -44 6
q-14 3 -33 14v142q0 12 37 12q34 0 34 -12z" />
    <glyph glyph-name="exclamdown" unicode="&#x411;" horiz-adv-x="597" 
d="M321 496q82 1 134 -27q57 -31 60 -79q2 -28 5 -90q3 -93 5 -324v-144q0 -10 -12 -17q-7 -5 -35 -7q-19 0 -31.5 7t-12.5 17l8 288q2 116 2 176v87q0 25 -49 43q-39 13 -71 14q-26 1 -81.5 -19t-54.5 -43q2 -18 4 -62q4 -98 5 -217l1 -95q0 -5 -12 -11q-2 -1 -40 -4
q-19 0 -32 4t-13 13l10 405q0 12 -17 23q-13 8 -35 9q-9 0 -39 -17q0 4 -3 19q27 48 57 51q13 0 41.5 -17t49.5 -15q24 2 75 18q47 14 81 14zM217 714q-24 -6 -36 -17q-25 -23 -18 -33q11 -14 33 -37q13 -13 31 -16q0 -8 -6 -20q-5 -7 -26 -10q-4 0 -18 7l-18 6
q-13 6 -19 18q-12 23 -17 49q0 13 -2 35q0 57 35 78q15 9 28 9q29 0 40.5 -13.5t13.5 -30.5q0 -17 -21 -25zM405 561l-113 165q-5 7 -4 20q2 26 18 33.5t37 7.5q29 -3 35 -25l55 -192zM330 -64v-115q25 -7 30 -10q13 -6 23 -21q4 -4 -10 -10q-11 -1 -37 -6q-20 0 -44 6
q-14 3 -33 14v142q0 12 37 12q34 0 34 -12z" />
    <glyph glyph-name="logicalnot" unicode="&#xac;" horiz-adv-x="597" 
d="M321 496q82 1 134 -27q57 -31 60 -79q2 -28 5 -90q3 -93 5 -324v-144q0 -10 -12 -17q-7 -5 -35 -7q-19 0 -31.5 7t-12.5 17l8 288q2 116 2 176v87q0 25 -49 43q-39 13 -71 14q-26 1 -81.5 -19t-54.5 -43q2 -18 4 -62q4 -98 5 -217l1 -95q0 -5 -12 -11q-2 -1 -40 -4
q-19 0 -32 4t-13 13l10 405q0 12 -17 23q-13 8 -35 9q-9 0 -39 -17q0 4 -3 19q27 48 57 51q13 0 41.5 -17t49.5 -15q24 2 75 18q47 14 81 14zM177 807q6 -16 10 -21q6 -9 17 -16q26 -16 39 -16q14 1 25 5q21 6 43 19q52 33 75 32q82 -2 109 -75l-22 -36q-25 53 -86 53
q-12 0 -23 -6q-10 -1 -42 -14q-26 -15 -47 -24q-30 -13 -50 -13q-14 0 -24 7.5t-21 15.5q-34 25 -43 49zM271 676q1 6 12.5 19t41.5 13q17 0 28 -7q9 -3 25 -19q10 -20 10 -59q-1 -7 -2 -25q-2 -8 -6 -13q-7 -8 -11 -16q-6 -12 -19 -18l-18 -6q-14 -7 -18 -7q-21 3 -26 10
q-6 12 -6 20q7 -1 31 16q9 10 16 12.5t10.5 7t1.5 18.5t-7 18q-11 10 -39 17q-24 9 -24 19zM330 -64v-115q25 -7 30 -10q13 -6 23 -21q4 -4 -10 -10q-11 -1 -37 -6q-20 0 -44 6q-14 3 -33 14v142q0 12 37 12q34 0 34 -12z" />
    <glyph glyph-name="logicalnot" unicode="&#x412;" horiz-adv-x="597" 
d="M321 496q82 1 134 -27q57 -31 60 -79q2 -28 5 -90q3 -93 5 -324v-144q0 -10 -12 -17q-7 -5 -35 -7q-19 0 -31.5 7t-12.5 17l8 288q2 116 2 176v87q0 25 -49 43q-39 13 -71 14q-26 1 -81.5 -19t-54.5 -43q2 -18 4 -62q4 -98 5 -217l1 -95q0 -5 -12 -11q-2 -1 -40 -4
q-19 0 -32 4t-13 13l10 405q0 12 -17 23q-13 8 -35 9q-9 0 -39 -17q0 4 -3 19q27 48 57 51q13 0 41.5 -17t49.5 -15q24 2 75 18q47 14 81 14zM177 807q6 -16 10 -21q6 -9 17 -16q26 -16 39 -16q14 1 25 5q21 6 43 19q52 33 75 32q82 -2 109 -75l-22 -36q-25 53 -86 53
q-12 0 -23 -6q-10 -1 -42 -14q-26 -15 -47 -24q-30 -13 -50 -13q-14 0 -24 7.5t-21 15.5q-34 25 -43 49zM271 676q1 6 12.5 19t41.5 13q17 0 28 -7q9 -3 25 -19q10 -20 10 -59q-1 -7 -2 -25q-2 -8 -6 -13q-7 -8 -11 -16q-6 -12 -19 -18l-18 -6q-14 -7 -18 -7q-21 3 -26 10
q-6 12 -6 20q7 -1 31 16q9 10 16 12.5t10.5 7t1.5 18.5t-7 18q-11 10 -39 17q-24 9 -24 19zM330 -64v-115q25 -7 30 -10q13 -6 23 -21q4 -4 -10 -10q-11 -1 -37 -6q-20 0 -44 6q-14 3 -33 14v142q0 12 37 12q34 0 34 -12z" />
    <glyph glyph-name="radical" unicode="&#x413;" horiz-adv-x="597" 
d="M321 496q82 1 134 -27q57 -31 60 -79q2 -28 5 -90q3 -93 5 -324v-144q0 -10 -12 -17q-7 -5 -35 -7q-19 0 -31.5 7t-12.5 17l8 288q2 116 2 176v87q0 25 -49 43q-39 13 -71 14q-26 1 -81.5 -19t-54.5 -43q2 -18 4 -62q4 -98 5 -217l1 -95q0 -5 -12 -11q-2 -1 -40 -4
q-19 0 -32 4t-13 13l10 405q0 12 -17 23q-13 8 -35 9q-9 0 -39 -17q0 4 -3 19q27 48 57 51q13 0 41.5 -17t49.5 -15q24 2 75 18q47 14 81 14zM501 770q-8 -24 -43 -49q-30 -21 -63 -21q-20 0 -77 33q-18 6 -44 16q-11 6 -23 6q-61 0 -86 -53l-22 36q27 73 109 75
q21 1 73 -30.5t70 -33.5q26 0 50.5 16.5t33.5 40.5zM343 660q-28 -7 -39 -17q-5 -4 -7 -18t1.5 -18.5t10.5 -7t16 -12.5q13 -13 31 -16q0 -8 -6 -20q-5 -7 -26 -10q-4 0 -18 7l-18 6q-13 6 -19 18q-7 7 -17 29q0 8 -2 25q0 39 10 59q3 5 25 19q15 9 28 9q29 0 41 -14
q6 -4 13 -20q0 -10 -24 -19zM330 -64v-115q25 -7 30 -10q13 -6 23 -21q4 -4 -10 -10q-11 -1 -37 -6q-20 0 -44 6q-14 3 -33 14v142q0 12 37 12q34 0 34 -12z" />
    <glyph glyph-name="radical" unicode="&#x221a;" horiz-adv-x="597" 
d="M321 496q82 1 134 -27q57 -31 60 -79q2 -28 5 -90q3 -93 5 -324v-144q0 -10 -12 -17q-7 -5 -35 -7q-19 0 -31.5 7t-12.5 17l8 288q2 116 2 176v87q0 25 -49 43q-39 13 -71 14q-26 1 -81.5 -19t-54.5 -43q2 -18 4 -62q4 -98 5 -217l1 -95q0 -5 -12 -11q-2 -1 -40 -4
q-19 0 -32 4t-13 13l10 405q0 12 -17 23q-13 8 -35 9q-9 0 -39 -17q0 4 -3 19q27 48 57 51q13 0 41.5 -17t49.5 -15q24 2 75 18q47 14 81 14zM501 770q-8 -24 -43 -49q-30 -21 -63 -21q-20 0 -77 33q-18 6 -44 16q-11 6 -23 6q-61 0 -86 -53l-22 36q27 73 109 75
q21 1 73 -30.5t70 -33.5q26 0 50.5 16.5t33.5 40.5zM343 660q-28 -7 -39 -17q-5 -4 -7 -18t1.5 -18.5t10.5 -7t16 -12.5q13 -13 31 -16q0 -8 -6 -20q-5 -7 -26 -10q-4 0 -18 7l-18 6q-13 6 -19 18q-7 7 -17 29q0 8 -2 25q0 39 10 59q3 5 25 19q15 9 28 9q29 0 41 -14
q6 -4 13 -20q0 -10 -24 -19zM330 -64v-115q25 -7 30 -10q13 -6 23 -21q4 -4 -10 -10q-11 -1 -37 -6q-20 0 -44 6q-14 3 -33 14v142q0 12 37 12q34 0 34 -12z" />
    <glyph glyph-name="florin" unicode="&#x192;" horiz-adv-x="928" 
d="M505 263q0 -7 -1 -13v-11q0 -104 28 -138q12 -6 47 -25q31 -18 68 -18q26 0 42 2q29 3 56.5 38t34.5 59l8 62q0 10 1 14q0 86 -49 129q-35 30 -130 59q-28 19 -28 34q0 6 5 10.5t20.5 7.5t43.5 3q101 0 165 -65.5t64 -190.5q0 -141 -63.5 -191t-186.5 -51q-31 0 -80 24
q-25 16 -83 50q-30 -18 -91 -52q-43 -21 -96 -22q-230 -3 -232 242q-1 128 63 190.5t167 65.5q23 1 48 -4q19 -3 20 -17q0 -15 -28 -34q-102 -32 -141 -74q-42 -46 -38 -114l2 -35q3 -50 42 -100q26 -33 62 -36q9 -1 28 -4q33 0 66 14q20 5 52 24q31 34 31 151v16q0 4 9.5 6
t28.5 3q27 0 36 -1t9 -8zM500 -64v-115q25 -7 30 -10q13 -6 23 -21q4 -4 -10 -10q-11 -1 -37 -6q-20 0 -44 6q-14 3 -33 14v142q0 12 37 12q34 0 34 -12z" />
    <glyph glyph-name="florin" unicode="&#x414;" horiz-adv-x="928" 
d="M505 263q0 -7 -1 -13v-11q0 -104 28 -138q12 -6 47 -25q31 -18 68 -18q26 0 42 2q29 3 56.5 38t34.5 59l8 62q0 10 1 14q0 86 -49 129q-35 30 -130 59q-28 19 -28 34q0 6 5 10.5t20.5 7.5t43.5 3q101 0 165 -65.5t64 -190.5q0 -141 -63.5 -191t-186.5 -51q-31 0 -80 24
q-25 16 -83 50q-30 -18 -91 -52q-43 -21 -96 -22q-230 -3 -232 242q-1 128 63 190.5t167 65.5q23 1 48 -4q19 -3 20 -17q0 -15 -28 -34q-102 -32 -141 -74q-42 -46 -38 -114l2 -35q3 -50 42 -100q26 -33 62 -36q9 -1 28 -4q33 0 66 14q20 5 52 24q31 34 31 151v16q0 4 9.5 6
t28.5 3q27 0 36 -1t9 -8zM500 -64v-115q25 -7 30 -10q13 -6 23 -21q4 -4 -10 -10q-11 -1 -37 -6q-20 0 -44 6q-14 3 -33 14v142q0 12 37 12q34 0 34 -12z" />
    <glyph glyph-name="approxequal" unicode="&#x415;" horiz-adv-x="928" 
d="M506 263q0 -7 -1 -13v-11q0 -104 28 -138q12 -6 47 -25q30 -18 68 -18q25 0 42 2q28 3 56 38t34 59q5 31 9 62q0 10 1 14q0 86 -49 129q-35 30 -130 59q-28 19 -28 34q0 6 5 10.5t20.5 7.5t43.5 3q100 0 164.5 -65.5t64.5 -190.5q0 -141 -63.5 -191t-186.5 -51
q-31 0 -80 24q-25 16 -83 50q-30 -18 -91 -52q-43 -21 -96 -22q-230 -3 -232 242q-1 127 63 190t167 66q23 1 48 -4q19 -3 20 -17q0 -15 -28 -34q-102 -32 -141 -74q-42 -46 -38 -114l2 -35q3 -50 42 -100q26 -33 62 -36q9 -2 28 -4q33 0 66 14q19 5 52 24q31 33 31 151v16
q0 4 10 7q9 0 28 2q27 0 36 -1t9 -8zM422 558l55 192q6 22 35 25q21 0 37 -7.5t18 -33.5q1 -13 -4 -20l-113 -165z" />
    <glyph glyph-name="approxequal" unicode="&#x2248;" horiz-adv-x="928" 
d="M506 263q0 -7 -1 -13v-11q0 -104 28 -138q12 -6 47 -25q30 -18 68 -18q25 0 42 2q28 3 56 38t34 59q5 31 9 62q0 10 1 14q0 86 -49 129q-35 30 -130 59q-28 19 -28 34q0 6 5 10.5t20.5 7.5t43.5 3q100 0 164.5 -65.5t64.5 -190.5q0 -141 -63.5 -191t-186.5 -51
q-31 0 -80 24q-25 16 -83 50q-30 -18 -91 -52q-43 -21 -96 -22q-230 -3 -232 242q-1 127 63 190t167 66q23 1 48 -4q19 -3 20 -17q0 -15 -28 -34q-102 -32 -141 -74q-42 -46 -38 -114l2 -35q3 -50 42 -100q26 -33 62 -36q9 -2 28 -4q33 0 66 14q19 5 52 24q31 33 31 151v16
q0 4 10 7q9 0 28 2q27 0 36 -1t9 -8zM422 558l55 192q6 22 35 25q21 0 37 -7.5t18 -33.5q1 -13 -4 -20l-113 -165z" />
    <glyph glyph-name="Delta" unicode="&#x416;" horiz-adv-x="928" 
d="M506 263q0 -7 -1 -13v-11q0 -104 28 -138q12 -6 47 -25q30 -18 68 -18q25 0 42 2q28 3 56 38t34 59q5 31 9 62q0 10 1 14q0 86 -49 129q-35 30 -130 59q-28 19 -28 34q0 6 5 10.5t20.5 7.5t43.5 3q100 0 164.5 -65.5t64.5 -190.5q0 -141 -63.5 -191t-186.5 -51
q-31 0 -80 24q-25 16 -83 50q-30 -18 -91 -52q-43 -21 -96 -22q-230 -3 -232 242q-1 127 63 190t167 66q23 1 48 -4q19 -3 20 -17q0 -15 -28 -34q-102 -32 -141 -74q-42 -46 -38 -114l2 -35q3 -50 42 -100q26 -33 62 -36q9 -2 28 -4q33 0 66 14q19 5 52 24q31 33 31 151v16
q0 4 10 7q9 0 28 2q27 0 36 -1t9 -8zM460 549l-113 165q-5 7 -4 20q2 26 18 33.5t37 7.5q29 -3 35 -25l55 -192z" />
    <glyph glyph-name="Delta" unicode="&#x2206;" horiz-adv-x="928" 
d="M506 263q0 -7 -1 -13v-11q0 -104 28 -138q12 -6 47 -25q30 -18 68 -18q25 0 42 2q28 3 56 38t34 59q5 31 9 62q0 10 1 14q0 86 -49 129q-35 30 -130 59q-28 19 -28 34q0 6 5 10.5t20.5 7.5t43.5 3q100 0 164.5 -65.5t64.5 -190.5q0 -141 -63.5 -191t-186.5 -51
q-31 0 -80 24q-25 16 -83 50q-30 -18 -91 -52q-43 -21 -96 -22q-230 -3 -232 242q-1 127 63 190t167 66q23 1 48 -4q19 -3 20 -17q0 -15 -28 -34q-102 -32 -141 -74q-42 -46 -38 -114l2 -35q3 -50 42 -100q26 -33 62 -36q9 -2 28 -4q33 0 66 14q19 5 52 24q31 33 31 151v16
q0 4 10 7q9 0 28 2q27 0 36 -1t9 -8zM460 549l-113 165q-5 7 -4 20q2 26 18 33.5t37 7.5q29 -3 35 -25l55 -192z" />
    <glyph glyph-name="guillemotleft" unicode="&#x417;" horiz-adv-x="928" 
d="M506 263q0 -7 -1 -13v-11q0 -104 28 -138q12 -6 47 -25q30 -18 68 -18q25 0 42 2q28 3 56 38t34 59q5 31 9 62q0 10 1 14q0 86 -49 129q-35 30 -130 59q-28 19 -28 34q0 6 5 10.5t20.5 7.5t43.5 3q100 0 164.5 -65.5t64.5 -190.5q0 -141 -63.5 -191t-186.5 -51
q-31 0 -80 24q-25 16 -83 50q-30 -18 -91 -52q-43 -21 -96 -22q-230 -3 -232 242q-1 127 63 190t167 66q23 1 48 -4q19 -3 20 -17q0 -15 -28 -34q-102 -32 -141 -74q-42 -46 -38 -114l2 -35q3 -50 42 -100q26 -33 62 -36q9 -2 28 -4q33 0 66 14q19 5 52 24q31 33 31 151v16
q0 4 10 7q9 0 28 2q27 0 36 -1t9 -8zM646 656q-12 -34 -41.5 -56t-64.5 -22q-20 0 -77 33q-52 30 -67 30q-61 0 -86 -53l-22 41q27 73 109 75q21 1 73 -30.5t70 -33.5q26 0 50.5 16.5t33.5 40.5z" />
    <glyph glyph-name="guillemotright" unicode="&#x418;" horiz-adv-x="928" 
d="M506 263q0 -7 -1 -13v-11q0 -104 28 -138q12 -6 47 -25q30 -18 68 -18q25 0 42 2q28 3 56 38t34 59q5 31 9 62q0 10 1 14q0 86 -49 129q-35 30 -130 59q-28 19 -28 34q0 6 5 10.5t20.5 7.5t43.5 3q100 0 164.5 -65.5t64.5 -190.5q0 -141 -63.5 -191t-186.5 -51
q-31 0 -80 24q-25 16 -83 50q-30 -18 -91 -52q-43 -21 -96 -22q-230 -3 -232 242q-1 127 63 190t167 66q23 1 48 -4q19 -3 20 -17q0 -15 -28 -34q-102 -32 -141 -74q-42 -46 -38 -114l2 -35q3 -50 42 -100q26 -33 62 -36q9 -2 28 -4q33 0 66 14q19 5 52 24q31 33 31 151v16
q0 4 10 7q9 0 28 2q27 0 36 -1t9 -8zM419 727q2 17 14 30.5t40 13.5q34 0 53 -38q10 -20 10 -49q-1 -11 -2 -35q-5 -26 -17 -49q-6 -12 -19 -18l-18 -6q-14 -7 -18 -7q-21 3 -26 10q-6 12 -6 20q7 -1 31 16q22 23 33 37q7 9 -18 33q-12 11 -34.5 17.5t-22.5 24.5z" />
    <glyph glyph-name="ellipsis" unicode="&#x419;" horiz-adv-x="928" 
d="M506 263q0 -7 -1 -13v-11q0 -104 28 -138q12 -6 47 -25q30 -18 68 -18q25 0 42 2q28 3 56 38t34 59q5 31 9 62q0 10 1 14q0 86 -49 129q-35 30 -130 59q-28 19 -28 34q0 6 5 10.5t20.5 7.5t43.5 3q100 0 164.5 -65.5t64.5 -190.5q0 -141 -63.5 -191t-186.5 -51
q-31 0 -80 24q-25 16 -83 50q-30 -18 -91 -52q-43 -21 -96 -22q-230 -3 -232 242q-1 127 63 190t167 66q23 1 48 -4q19 -3 20 -17q0 -15 -28 -34q-102 -32 -141 -74q-42 -46 -38 -114l2 -35q3 -50 42 -100q26 -33 62 -36q9 -2 28 -4q33 0 66 14q19 5 52 24q31 33 31 151v16
q0 4 10 7q9 0 28 2q27 0 36 -1t9 -8zM510 684q-24 -6 -36 -17q-25 -24 -18 -33q11 -14 33 -37q13 -13 31 -16q0 -8 -6 -20q-5 -7 -26 -10q-4 0 -18 7l-18 6q-13 6 -19 18q-12 23 -17 49q-1 12 -2 35q0 56 35 78q15 9 28 9q28 0 40 -13.5t14 -30.5q0 -18 -21 -25z" />
    <glyph glyph-name="nonbreakingspace" unicode="&#xa0;" horiz-adv-x="898" 
d="M0 0zM505 263q0 -7 -1 -13v-11q0 -104 28 -138q12 -6 47 -25q31 -18 68 -18q26 0 42 2q29 3 56.5 38t34.5 59l8 62q0 10 1 14q0 86 -49 129q-35 30 -130 59q-28 19 -28 34q0 6 5 10.5t20.5 7.5t43.5 3q101 0 165 -65.5t64 -190.5q0 -141 -63.5 -191t-186.5 -51
q-31 0 -80 24q-25 16 -83 50q-30 -18 -91 -52q-43 -21 -96 -22q-230 -3 -232 242q-1 128 63 190.5t167 65.5q23 1 48 -4q19 -3 20 -17q0 -15 -28 -34q-102 -32 -141 -74q-42 -46 -38 -114l2 -35q3 -50 42 -100q26 -33 62 -36q9 -1 28 -4q33 0 66 14q20 5 52 24q31 34 31 151
v16q0 4 9.5 6t28.5 3q27 0 36 -1t9 -8zM471 558l55 192q6 22 35 25q21 0 37 -7.5t18 -33.5q1 -13 -4 -20l-113 -165zM338 727q2 17 14 30.5t40 13.5q34 0 53 -38q10 -20 10 -49q0 -10 -2 -35q-5 -26 -17 -49q-6 -12 -19 -18l-18 -6q-14 -7 -18 -7q-21 3 -26 10q-6 12 -6 20
q7 -1 31 16q22 23 33 37q7 10 -18 33q-12 11 -34.5 18t-22.5 24z" />
    <glyph glyph-name="nonbreakingspace" unicode="&#x41a;" horiz-adv-x="898" 
d="M0 0zM505 263q0 -7 -1 -13v-11q0 -104 28 -138q12 -6 47 -25q31 -18 68 -18q26 0 42 2q29 3 56.5 38t34.5 59l8 62q0 10 1 14q0 86 -49 129q-35 30 -130 59q-28 19 -28 34q0 6 5 10.5t20.5 7.5t43.5 3q101 0 165 -65.5t64 -190.5q0 -141 -63.5 -191t-186.5 -51
q-31 0 -80 24q-25 16 -83 50q-30 -18 -91 -52q-43 -21 -96 -22q-230 -3 -232 242q-1 128 63 190.5t167 65.5q23 1 48 -4q19 -3 20 -17q0 -15 -28 -34q-102 -32 -141 -74q-42 -46 -38 -114l2 -35q3 -50 42 -100q26 -33 62 -36q9 -1 28 -4q33 0 66 14q20 5 52 24q31 34 31 151
v16q0 4 9.5 6t28.5 3q27 0 36 -1t9 -8zM471 558l55 192q6 22 35 25q21 0 37 -7.5t18 -33.5q1 -13 -4 -20l-113 -165zM338 727q2 17 14 30.5t40 13.5q34 0 53 -38q10 -20 10 -49q0 -10 -2 -35q-5 -26 -17 -49q-6 -12 -19 -18l-18 -6q-14 -7 -18 -7q-21 3 -26 10q-6 12 -6 20
q7 -1 31 16q22 23 33 37q7 10 -18 33q-12 11 -34.5 18t-22.5 24z" />
    <glyph glyph-name="Agrave" unicode="&#xc0;" horiz-adv-x="928" 
d="M506 263q0 -7 -1 -13v-11q0 -104 28 -138q12 -6 47 -25q30 -18 68 -18q25 0 42 2q28 3 56 38t34 59q5 31 9 62q0 10 1 14q0 86 -49 129q-35 30 -130 59q-28 19 -28 34q0 6 5 10.5t20.5 7.5t43.5 3q100 0 164.5 -65.5t64.5 -190.5q0 -141 -63.5 -191t-186.5 -51
q-31 0 -80 24q-25 16 -83 50q-30 -18 -91 -52q-43 -21 -96 -22q-230 -3 -232 242q-1 127 63 190t167 66q23 1 48 -4q19 -3 20 -17q0 -15 -28 -34q-102 -32 -141 -74q-42 -46 -38 -114l2 -35q3 -50 42 -100q26 -33 62 -36q9 -2 28 -4q33 0 66 14q19 5 52 24q31 33 31 151v16
q0 4 10 7q9 0 28 2q27 0 36 -1t9 -8zM378 702q-24 -6 -36 -17q-25 -24 -18 -33q11 -14 33 -37q13 -13 31 -16q0 -8 -6 -20q-5 -7 -26 -10q-4 0 -18 7l-18 6q-13 6 -19 18q-12 23 -17 49q-1 12 -2 35q0 56 35 78q15 9 28 9q28 0 40 -13.5t14 -30.5q0 -18 -21 -25zM488 558
l55 192q6 22 35 25q21 0 37 -7.5t18 -33.5q1 -13 -4 -20l-113 -165z" />
    <glyph glyph-name="Agrave" unicode="&#x41b;" horiz-adv-x="928" 
d="M506 263q0 -7 -1 -13v-11q0 -104 28 -138q12 -6 47 -25q30 -18 68 -18q25 0 42 2q28 3 56 38t34 59q5 31 9 62q0 10 1 14q0 86 -49 129q-35 30 -130 59q-28 19 -28 34q0 6 5 10.5t20.5 7.5t43.5 3q100 0 164.5 -65.5t64.5 -190.5q0 -141 -63.5 -191t-186.5 -51
q-31 0 -80 24q-25 16 -83 50q-30 -18 -91 -52q-43 -21 -96 -22q-230 -3 -232 242q-1 127 63 190t167 66q23 1 48 -4q19 -3 20 -17q0 -15 -28 -34q-102 -32 -141 -74q-42 -46 -38 -114l2 -35q3 -50 42 -100q26 -33 62 -36q9 -2 28 -4q33 0 66 14q19 5 52 24q31 33 31 151v16
q0 4 10 7q9 0 28 2q27 0 36 -1t9 -8zM378 702q-24 -6 -36 -17q-25 -24 -18 -33q11 -14 33 -37q13 -13 31 -16q0 -8 -6 -20q-5 -7 -26 -10q-4 0 -18 7l-18 6q-13 6 -19 18q-12 23 -17 49q-1 12 -2 35q0 56 35 78q15 9 28 9q28 0 40 -13.5t14 -30.5q0 -18 -21 -25zM488 558
l55 192q6 22 35 25q21 0 37 -7.5t18 -33.5q1 -13 -4 -20l-113 -165z" />
    <glyph glyph-name="Atilde" unicode="&#xc3;" horiz-adv-x="928" 
d="M506 263q0 -7 -1 -13v-11q0 -104 28 -138q12 -6 47 -25q30 -18 68 -18q25 0 42 2q28 3 56 38t34 59q5 31 9 62q0 10 1 14q0 86 -49 129q-35 30 -130 59q-28 19 -28 34q0 6 5 10.5t20.5 7.5t43.5 3q100 0 164.5 -65.5t64.5 -190.5q0 -141 -63.5 -191t-186.5 -51
q-31 0 -80 24q-25 16 -83 50q-30 -18 -91 -52q-43 -21 -96 -22q-230 -3 -232 242q-1 127 63 190t167 66q23 1 48 -4q19 -3 20 -17q0 -15 -28 -34q-102 -32 -141 -74q-42 -46 -38 -114l2 -35q3 -50 42 -100q26 -33 62 -36q9 -2 28 -4q33 0 66 14q19 5 52 24q31 33 31 151v16
q0 4 10 7q9 0 28 2q27 0 36 -1t9 -8zM564 549l-113 165q-5 7 -4 20q2 26 18 33.5t37 7.5q29 -3 35 -25l55 -192zM293 727q2 17 14 30.5t40 13.5q34 0 53 -38q10 -20 10 -49q-1 -11 -2 -35q-5 -26 -17 -49q-6 -12 -19 -18l-18 -6q-14 -7 -18 -7q-21 3 -26 10q-6 12 -6 20
q7 -1 31 16q22 23 33 37q7 9 -18 33q-12 11 -34.5 17.5t-22.5 24.5z" />
    <glyph glyph-name="Atilde" unicode="&#x41c;" horiz-adv-x="928" 
d="M506 263q0 -7 -1 -13v-11q0 -104 28 -138q12 -6 47 -25q30 -18 68 -18q25 0 42 2q28 3 56 38t34 59q5 31 9 62q0 10 1 14q0 86 -49 129q-35 30 -130 59q-28 19 -28 34q0 6 5 10.5t20.5 7.5t43.5 3q100 0 164.5 -65.5t64.5 -190.5q0 -141 -63.5 -191t-186.5 -51
q-31 0 -80 24q-25 16 -83 50q-30 -18 -91 -52q-43 -21 -96 -22q-230 -3 -232 242q-1 127 63 190t167 66q23 1 48 -4q19 -3 20 -17q0 -15 -28 -34q-102 -32 -141 -74q-42 -46 -38 -114l2 -35q3 -50 42 -100q26 -33 62 -36q9 -2 28 -4q33 0 66 14q19 5 52 24q31 33 31 151v16
q0 4 10 7q9 0 28 2q27 0 36 -1t9 -8zM564 549l-113 165q-5 7 -4 20q2 26 18 33.5t37 7.5q29 -3 35 -25l55 -192zM293 727q2 17 14 30.5t40 13.5q34 0 53 -38q10 -20 10 -49q-1 -11 -2 -35q-5 -26 -17 -49q-6 -12 -19 -18l-18 -6q-14 -7 -18 -7q-21 3 -26 10q-6 12 -6 20
q7 -1 31 16q22 23 33 37q7 9 -18 33q-12 11 -34.5 17.5t-22.5 24.5z" />
    <glyph glyph-name="Otilde" unicode="&#xd5;" horiz-adv-x="928" 
d="M506 263q0 -7 -1 -13v-11q0 -104 28 -138q12 -6 47 -25q30 -18 68 -18q25 0 42 2q28 3 56 38t34 59q5 31 9 62q0 10 1 14q0 86 -49 129q-35 30 -130 59q-28 19 -28 34q0 6 5 10.5t20.5 7.5t43.5 3q100 0 164.5 -65.5t64.5 -190.5q0 -141 -63.5 -191t-186.5 -51
q-31 0 -80 24q-25 16 -83 50q-30 -18 -91 -52q-43 -21 -96 -22q-230 -3 -232 242q-1 127 63 190t167 66q23 1 48 -4q19 -3 20 -17q0 -15 -28 -34q-102 -32 -141 -74q-42 -46 -38 -114l2 -35q3 -50 42 -100q26 -33 62 -36q9 -2 28 -4q33 0 66 14q19 5 52 24q31 33 31 151v16
q0 4 10 7q9 0 28 2q27 0 36 -1t9 -8zM356 708q-24 -6 -36 -17q-25 -24 -18 -33q11 -14 33 -37q13 -13 31 -16q0 -8 -6 -20q-5 -7 -26 -10q-4 0 -18 7l-18 6q-13 6 -19 18q-12 23 -17 49q-1 12 -2 35q0 56 35 78q15 9 28 9q28 0 40 -13.5t14 -30.5q0 -18 -21 -25zM544 555
l-113 165q-5 7 -4 20q2 26 18 33.5t37 7.5q29 -3 35 -25l55 -192z" />
    <glyph glyph-name="Otilde" unicode="&#x41d;" horiz-adv-x="928" 
d="M506 263q0 -7 -1 -13v-11q0 -104 28 -138q12 -6 47 -25q30 -18 68 -18q25 0 42 2q28 3 56 38t34 59q5 31 9 62q0 10 1 14q0 86 -49 129q-35 30 -130 59q-28 19 -28 34q0 6 5 10.5t20.5 7.5t43.5 3q100 0 164.5 -65.5t64.5 -190.5q0 -141 -63.5 -191t-186.5 -51
q-31 0 -80 24q-25 16 -83 50q-30 -18 -91 -52q-43 -21 -96 -22q-230 -3 -232 242q-1 127 63 190t167 66q23 1 48 -4q19 -3 20 -17q0 -15 -28 -34q-102 -32 -141 -74q-42 -46 -38 -114l2 -35q3 -50 42 -100q26 -33 62 -36q9 -2 28 -4q33 0 66 14q19 5 52 24q31 33 31 151v16
q0 4 10 7q9 0 28 2q27 0 36 -1t9 -8zM356 708q-24 -6 -36 -17q-25 -24 -18 -33q11 -14 33 -37q13 -13 31 -16q0 -8 -6 -20q-5 -7 -26 -10q-4 0 -18 7l-18 6q-13 6 -19 18q-12 23 -17 49q-1 12 -2 35q0 56 35 78q15 9 28 9q28 0 40 -13.5t14 -30.5q0 -18 -21 -25zM544 555
l-113 165q-5 7 -4 20q2 26 18 33.5t37 7.5q29 -3 35 -25l55 -192z" />
    <glyph glyph-name="OE" unicode="&#x152;" horiz-adv-x="928" 
d="M506 263q0 -7 -1 -13v-11q0 -104 28 -138q12 -6 47 -25q30 -18 68 -18q25 0 42 2q28 3 56 38t34 59q5 31 9 62q0 10 1 14q0 86 -49 129q-35 30 -130 59q-28 19 -28 34q0 6 5 10.5t20.5 7.5t43.5 3q100 0 164.5 -65.5t64.5 -190.5q0 -141 -63.5 -191t-186.5 -51
q-31 0 -80 24q-25 16 -83 50q-30 -18 -91 -52q-43 -21 -96 -22q-230 -3 -232 242q-1 127 63 190t167 66q23 1 48 -4q19 -3 20 -17q0 -15 -28 -34q-102 -32 -141 -74q-42 -46 -38 -114l2 -35q3 -50 42 -100q26 -33 62 -36q9 -2 28 -4q33 0 66 14q19 5 52 24q31 33 31 151v16
q0 4 10 7q9 0 28 2q27 0 36 -1t9 -8zM328 796q6 -16 10 -21q5 -9 17 -16q26 -16 39 -16q14 1 25 4q21 6 43 20q52 33 75 32q82 -2 109 -75l-22 -36q-25 53 -86 53q-12 0 -23 -6q-10 -1 -42 -14q-26 -15 -47 -24q-30 -13 -50 -13q-14 0 -24 7.5t-21 15.5q-34 24 -43 49z
M422 665q1 6 12.5 19t41.5 13q17 0 28 -7q9 -3 25 -19q10 -20 10 -59q-1 -8 -2 -25q-2 -8 -6 -13q-7 -8 -11 -16q-6 -12 -19 -18l-18 -6q-14 -7 -18 -7q-21 3 -26 10q-6 12 -6 20q7 -1 31 16q9 9 16 12t10.5 7.5t1.5 18.5q-2 13 -7 18q-11 10 -39 17q-24 9 -24 19z" />
    <glyph glyph-name="OE" unicode="&#x41e;" horiz-adv-x="928" 
d="M506 263q0 -7 -1 -13v-11q0 -104 28 -138q12 -6 47 -25q30 -18 68 -18q25 0 42 2q28 3 56 38t34 59q5 31 9 62q0 10 1 14q0 86 -49 129q-35 30 -130 59q-28 19 -28 34q0 6 5 10.5t20.5 7.5t43.5 3q100 0 164.5 -65.5t64.5 -190.5q0 -141 -63.5 -191t-186.5 -51
q-31 0 -80 24q-25 16 -83 50q-30 -18 -91 -52q-43 -21 -96 -22q-230 -3 -232 242q-1 127 63 190t167 66q23 1 48 -4q19 -3 20 -17q0 -15 -28 -34q-102 -32 -141 -74q-42 -46 -38 -114l2 -35q3 -50 42 -100q26 -33 62 -36q9 -2 28 -4q33 0 66 14q19 5 52 24q31 33 31 151v16
q0 4 10 7q9 0 28 2q27 0 36 -1t9 -8zM328 796q6 -16 10 -21q5 -9 17 -16q26 -16 39 -16q14 1 25 4q21 6 43 20q52 33 75 32q82 -2 109 -75l-22 -36q-25 53 -86 53q-12 0 -23 -6q-10 -1 -42 -14q-26 -15 -47 -24q-30 -13 -50 -13q-14 0 -24 7.5t-21 15.5q-34 24 -43 49z
M422 665q1 6 12.5 19t41.5 13q17 0 28 -7q9 -3 25 -19q10 -20 10 -59q-1 -8 -2 -25q-2 -8 -6 -13q-7 -8 -11 -16q-6 -12 -19 -18l-18 -6q-14 -7 -18 -7q-21 3 -26 10q-6 12 -6 20q7 -1 31 16q9 9 16 12t10.5 7.5t1.5 18.5q-2 13 -7 18q-11 10 -39 17q-24 9 -24 19z" />
    <glyph glyph-name="oe" unicode="&#x153;" horiz-adv-x="928" 
d="M506 263q0 -7 -1 -13v-11q0 -104 28 -138q12 -6 47 -25q30 -18 68 -18q25 0 42 2q28 3 56 38t34 59q5 31 9 62q0 10 1 14q0 86 -49 129q-35 30 -130 59q-28 19 -28 34q0 6 5 10.5t20.5 7.5t43.5 3q100 0 164.5 -65.5t64.5 -190.5q0 -141 -63.5 -191t-186.5 -51
q-31 0 -80 24q-25 16 -83 50q-30 -18 -91 -52q-43 -21 -96 -22q-230 -3 -232 242q-1 127 63 190t167 66q23 1 48 -4q19 -3 20 -17q0 -15 -28 -34q-102 -32 -141 -74q-42 -46 -38 -114l2 -35q3 -50 42 -100q26 -33 62 -36q9 -2 28 -4q33 0 66 14q19 5 52 24q31 33 31 151v16
q0 4 10 7q9 0 28 2q27 0 36 -1t9 -8zM650 756q-9 -25 -43 -49q-30 -21 -63 -21q-20 0 -77 33q-18 6 -44 16q-11 6 -23 6q-61 0 -86 -53l-22 36q27 73 109 75q21 1 73 -30.5t70 -33.5q26 0 50.5 16.5t33.5 40.5zM492 646q-28 -7 -39 -17q-5 -5 -7 -18q-2 -14 1.5 -18.5
t10.5 -7.5t16 -12q13 -13 31 -16q0 -8 -6 -20q-5 -7 -26 -10q-4 0 -18 7l-18 6q-13 6 -19 18q-7 7 -17 29q-1 7 -2 25q0 39 10 59q3 5 25 19q15 9 28 9q28 0 41 -14q6 -5 13 -20q0 -10 -24 -19z" />
    <glyph glyph-name="oe" unicode="&#x41f;" horiz-adv-x="928" 
d="M506 263q0 -7 -1 -13v-11q0 -104 28 -138q12 -6 47 -25q30 -18 68 -18q25 0 42 2q28 3 56 38t34 59q5 31 9 62q0 10 1 14q0 86 -49 129q-35 30 -130 59q-28 19 -28 34q0 6 5 10.5t20.5 7.5t43.5 3q100 0 164.5 -65.5t64.5 -190.5q0 -141 -63.5 -191t-186.5 -51
q-31 0 -80 24q-25 16 -83 50q-30 -18 -91 -52q-43 -21 -96 -22q-230 -3 -232 242q-1 127 63 190t167 66q23 1 48 -4q19 -3 20 -17q0 -15 -28 -34q-102 -32 -141 -74q-42 -46 -38 -114l2 -35q3 -50 42 -100q26 -33 62 -36q9 -2 28 -4q33 0 66 14q19 5 52 24q31 33 31 151v16
q0 4 10 7q9 0 28 2q27 0 36 -1t9 -8zM650 756q-9 -25 -43 -49q-30 -21 -63 -21q-20 0 -77 33q-18 6 -44 16q-11 6 -23 6q-61 0 -86 -53l-22 36q27 73 109 75q21 1 73 -30.5t70 -33.5q26 0 50.5 16.5t33.5 40.5zM492 646q-28 -7 -39 -17q-5 -5 -7 -18q-2 -14 1.5 -18.5
t10.5 -7.5t16 -12q13 -13 31 -16q0 -8 -6 -20q-5 -7 -26 -10q-4 0 -18 7l-18 6q-13 6 -19 18q-7 7 -17 29q-1 7 -2 25q0 39 10 59q3 5 25 19q15 9 28 9q28 0 41 -14q6 -5 13 -20q0 -10 -24 -19z" />
    <glyph glyph-name="endash" unicode="&#x420;" horiz-adv-x="928" 
d="M505 263q0 -7 -1 -13v-11q0 -104 28 -138q12 -6 47 -25q31 -18 68 -18q26 0 42 2q29 3 56.5 38t34.5 59l8 62q0 10 1 14q0 86 -49 129q-35 30 -130 59q-28 19 -28 34q0 6 5 10.5t20.5 7.5t43.5 3q101 0 165 -65.5t64 -190.5q0 -141 -63.5 -191t-186.5 -51q-31 0 -80 24
q-25 16 -83 50q-30 -18 -91 -52q-43 -21 -96 -22q-230 -3 -232 242q-1 128 63 190.5t167 65.5q23 1 48 -4q19 -3 20 -17q0 -15 -28 -34q-102 -32 -141 -74q-42 -46 -38 -114l2 -35q3 -50 42 -100q26 -33 62 -36q9 -1 28 -4q33 0 66 14q20 5 52 24q31 34 31 151v16q0 4 9.5 6
t28.5 3q27 0 36 -1t9 -8zM421 558l55 192q6 22 35 25q21 0 37 -7.5t18 -33.5q1 -13 -4 -20l-113 -165zM500 -64v-115q25 -7 30 -10q13 -6 23 -21q4 -4 -10 -10q-11 -1 -37 -6q-20 0 -44 6q-14 3 -33 14v142q0 12 37 12q34 0 34 -12z" />
    <glyph glyph-name="emdash" unicode="&#x421;" horiz-adv-x="928" 
d="M505 263q0 -7 -1 -13v-11q0 -104 28 -138q12 -6 47 -25q31 -18 68 -18q26 0 42 2q29 3 56.5 38t34.5 59l8 62q0 10 1 14q0 86 -49 129q-35 30 -130 59q-28 19 -28 34q0 6 5 10.5t20.5 7.5t43.5 3q101 0 165 -65.5t64 -190.5q0 -141 -63.5 -191t-186.5 -51q-31 0 -80 24
q-25 16 -83 50q-30 -18 -91 -52q-43 -21 -96 -22q-230 -3 -232 242q-1 128 63 190.5t167 65.5q23 1 48 -4q19 -3 20 -17q0 -15 -28 -34q-102 -32 -141 -74q-42 -46 -38 -114l2 -35q3 -50 42 -100q26 -33 62 -36q9 -1 28 -4q33 0 66 14q20 5 52 24q31 34 31 151v16q0 4 9.5 6
t28.5 3q27 0 36 -1t9 -8zM469 549l-113 165q-5 7 -4 20q2 26 18 33.5t37 7.5q29 -3 35 -25l55 -192zM500 -64v-115q25 -7 30 -10q13 -6 23 -21q4 -4 -10 -10q-11 -1 -37 -6q-20 0 -44 6q-14 3 -33 14v142q0 12 37 12q34 0 34 -12z" />
    <glyph glyph-name="quotedblleft" unicode="&#x422;" horiz-adv-x="928" 
d="M505 263q0 -7 -1 -13v-11q0 -104 28 -138q12 -6 47 -25q31 -18 68 -18q26 0 42 2q29 3 56.5 38t34.5 59l8 62q0 10 1 14q0 86 -49 129q-35 30 -130 59q-28 19 -28 34q0 6 5 10.5t20.5 7.5t43.5 3q101 0 165 -65.5t64 -190.5q0 -141 -63.5 -191t-186.5 -51q-31 0 -80 24
q-25 16 -83 50q-30 -18 -91 -52q-43 -21 -96 -22q-230 -3 -232 242q-1 128 63 190.5t167 65.5q23 1 48 -4q19 -3 20 -17q0 -15 -28 -34q-102 -32 -141 -74q-42 -46 -38 -114l2 -35q3 -50 42 -100q26 -33 62 -36q9 -1 28 -4q33 0 66 14q20 5 52 24q31 34 31 151v16q0 4 9.5 6
t28.5 3q27 0 36 -1t9 -8zM632 656q-12 -34 -41.5 -56t-64.5 -22q-20 0 -77 33q-52 30 -67 30q-61 0 -86 -53l-22 41q27 73 109 75q21 1 73 -30.5t70 -33.5q26 0 50.5 16.5t33.5 40.5zM500 -64v-115q25 -7 30 -10q13 -6 23 -21q4 -4 -10 -10q-11 -1 -37 -6q-20 0 -44 6
q-14 3 -33 14v142q0 12 37 12q34 0 34 -12z" />
    <glyph glyph-name="quotedblright" unicode="&#x423;" horiz-adv-x="928" 
d="M505 263q0 -7 -1 -13v-11q0 -104 28 -138q12 -6 47 -25q31 -18 68 -18q26 0 42 2q29 3 56.5 38t34.5 59l8 62q0 10 1 14q0 86 -49 129q-35 30 -130 59q-28 19 -28 34q0 6 5 10.5t20.5 7.5t43.5 3q101 0 165 -65.5t64 -190.5q0 -141 -63.5 -191t-186.5 -51q-31 0 -80 24
q-25 16 -83 50q-30 -18 -91 -52q-43 -21 -96 -22q-230 -3 -232 242q-1 128 63 190.5t167 65.5q23 1 48 -4q19 -3 20 -17q0 -15 -28 -34q-102 -32 -141 -74q-42 -46 -38 -114l2 -35q3 -50 42 -100q26 -33 62 -36q9 -1 28 -4q33 0 66 14q20 5 52 24q31 34 31 151v16q0 4 9.5 6
t28.5 3q27 0 36 -1t9 -8zM418 727q2 17 14 30.5t40 13.5q34 0 53 -38q10 -20 10 -49q0 -10 -2 -35q-5 -26 -17 -49q-6 -12 -19 -18l-18 -6q-14 -7 -18 -7q-21 3 -26 10q-6 12 -6 20q7 -1 31 16q22 23 33 37q7 10 -18 33q-12 11 -34.5 18t-22.5 24zM500 -64v-115
q25 -7 30 -10q13 -6 23 -21q4 -4 -10 -10q-11 -1 -37 -6q-20 0 -44 6q-14 3 -33 14v142q0 12 37 12q34 0 34 -12z" />
    <glyph glyph-name="quoteleft" unicode="&#x424;" horiz-adv-x="928" 
d="M505 263q0 -7 -1 -13v-11q0 -104 28 -138q12 -6 47 -25q31 -18 68 -18q26 0 42 2q29 3 56.5 38t34.5 59l8 62q0 10 1 14q0 86 -49 129q-35 30 -130 59q-28 19 -28 34q0 6 5 10.5t20.5 7.5t43.5 3q101 0 165 -65.5t64 -190.5q0 -141 -63.5 -191t-186.5 -51q-31 0 -80 24
q-25 16 -83 50q-30 -18 -91 -52q-43 -21 -96 -22q-230 -3 -232 242q-1 128 63 190.5t167 65.5q23 1 48 -4q19 -3 20 -17q0 -15 -28 -34q-102 -32 -141 -74q-42 -46 -38 -114l2 -35q3 -50 42 -100q26 -33 62 -36q9 -1 28 -4q33 0 66 14q20 5 52 24q31 34 31 151v16q0 4 9.5 6
t28.5 3q27 0 36 -1t9 -8zM509 684q-24 -6 -36 -17q-25 -23 -18 -33q11 -14 33 -37q13 -13 31 -16q0 -8 -6 -20q-5 -7 -26 -10q-4 0 -18 7l-18 6q-13 6 -19 18q-12 23 -17 49q-1 13 -2 35q0 57 35 78q15 9 28 9q28 0 40 -13.5t14 -30.5q0 -17 -21 -25zM500 -64v-115
q25 -7 30 -10q13 -6 23 -21q4 -4 -10 -10q-11 -1 -37 -6q-20 0 -44 6q-14 3 -33 14v142q0 12 37 12q34 0 34 -12z" />
    <glyph glyph-name="quoteright" unicode="&#x425;" horiz-adv-x="928" 
d="M505 263q0 -7 -1 -13v-11q0 -104 28 -138q12 -6 47 -25q31 -18 68 -18q26 0 42 2q29 3 56.5 38t34.5 59l8 62q0 10 1 14q0 86 -49 129q-35 30 -130 59q-28 19 -28 34q0 6 5 10.5t20.5 7.5t43.5 3q101 0 165 -65.5t64 -190.5q0 -141 -63.5 -191t-186.5 -51q-31 0 -80 24
q-25 16 -83 50q-30 -18 -91 -52q-43 -21 -96 -22q-230 -3 -232 242q-1 128 63 190.5t167 65.5q23 1 48 -4q19 -3 20 -17q0 -15 -28 -34q-102 -32 -141 -74q-42 -46 -38 -114l2 -35q3 -50 42 -100q26 -33 62 -36q9 -1 28 -4q33 0 66 14q20 5 52 24q31 34 31 151v16q0 4 9.5 6
t28.5 3q27 0 36 -1t9 -8zM455 552l55 192q6 22 35 25q21 0 37 -7.5t18 -33.5q1 -13 -4 -20l-113 -165zM322 721q2 17 14 30.5t40 13.5q34 0 53 -38q10 -20 10 -49q0 -10 -2 -35q-5 -26 -17 -49q-6 -12 -19 -18l-18 -6q-14 -7 -18 -7q-21 3 -26 10q-6 12 -6 20q7 -1 31 16
q22 23 33 37q7 10 -18 33q-12 11 -34.5 18t-22.5 24zM500 -64v-115q25 -7 30 -10q13 -6 23 -21q4 -4 -10 -10q-11 -1 -37 -6q-20 0 -44 6q-14 3 -33 14v142q0 12 37 12q34 0 34 -12z" />
    <glyph glyph-name="divide" unicode="&#xf7;" horiz-adv-x="928" 
d="M505 263q0 -7 -1 -13v-11q0 -104 28 -138q12 -6 47 -25q31 -18 68 -18q26 0 42 2q29 3 56.5 38t34.5 59l8 62q0 10 1 14q0 86 -49 129q-35 30 -130 59q-28 19 -28 34q0 6 5 10.5t20.5 7.5t43.5 3q101 0 165 -65.5t64 -190.5q0 -141 -63.5 -191t-186.5 -51q-31 0 -80 24
q-25 16 -83 50q-30 -18 -91 -52q-43 -21 -96 -22q-230 -3 -232 242q-1 128 63 190.5t167 65.5q23 1 48 -4q19 -3 20 -17q0 -15 -28 -34q-102 -32 -141 -74q-42 -46 -38 -114l2 -35q3 -50 42 -100q26 -33 62 -36q9 -1 28 -4q33 0 66 14q20 5 52 24q31 34 31 151v16q0 4 9.5 6
t28.5 3q27 0 36 -1t9 -8zM377 702q-24 -6 -36 -17q-25 -23 -18 -33q11 -14 33 -37q13 -13 31 -16q0 -8 -6 -20q-5 -7 -26 -10q-4 0 -18 7l-18 6q-13 6 -19 18q-12 23 -17 49q-1 13 -2 35q0 57 35 78q15 9 28 9q28 0 40 -13.5t14 -30.5q0 -17 -21 -25zM487 558l55 192
q6 22 35 25q21 0 37 -7.5t18 -33.5q1 -13 -4 -20l-113 -165zM500 -64v-115q25 -7 30 -10q13 -6 23 -21q4 -4 -10 -10q-11 -1 -37 -6q-20 0 -44 6q-14 3 -33 14v142q0 12 37 12q34 0 34 -12z" />
    <glyph glyph-name="divide" unicode="&#x426;" horiz-adv-x="928" 
d="M505 263q0 -7 -1 -13v-11q0 -104 28 -138q12 -6 47 -25q31 -18 68 -18q26 0 42 2q29 3 56.5 38t34.5 59l8 62q0 10 1 14q0 86 -49 129q-35 30 -130 59q-28 19 -28 34q0 6 5 10.5t20.5 7.5t43.5 3q101 0 165 -65.5t64 -190.5q0 -141 -63.5 -191t-186.5 -51q-31 0 -80 24
q-25 16 -83 50q-30 -18 -91 -52q-43 -21 -96 -22q-230 -3 -232 242q-1 128 63 190.5t167 65.5q23 1 48 -4q19 -3 20 -17q0 -15 -28 -34q-102 -32 -141 -74q-42 -46 -38 -114l2 -35q3 -50 42 -100q26 -33 62 -36q9 -1 28 -4q33 0 66 14q20 5 52 24q31 34 31 151v16q0 4 9.5 6
t28.5 3q27 0 36 -1t9 -8zM377 702q-24 -6 -36 -17q-25 -23 -18 -33q11 -14 33 -37q13 -13 31 -16q0 -8 -6 -20q-5 -7 -26 -10q-4 0 -18 7l-18 6q-13 6 -19 18q-12 23 -17 49q-1 13 -2 35q0 57 35 78q15 9 28 9q28 0 40 -13.5t14 -30.5q0 -17 -21 -25zM487 558l55 192
q6 22 35 25q21 0 37 -7.5t18 -33.5q1 -13 -4 -20l-113 -165zM500 -64v-115q25 -7 30 -10q13 -6 23 -21q4 -4 -10 -10q-11 -1 -37 -6q-20 0 -44 6q-14 3 -33 14v142q0 12 37 12q34 0 34 -12z" />
    <glyph glyph-name="lozenge" unicode="&#x427;" horiz-adv-x="928" 
d="M505 263q0 -7 -1 -13v-11q0 -104 28 -138q12 -6 47 -25q31 -18 68 -18q26 0 42 2q29 3 56.5 38t34.5 59l8 62q0 10 1 14q0 86 -49 129q-35 30 -130 59q-28 19 -28 34q0 6 5 10.5t20.5 7.5t43.5 3q101 0 165 -65.5t64 -190.5q0 -141 -63.5 -191t-186.5 -51q-31 0 -80 24
q-25 16 -83 50q-30 -18 -91 -52q-43 -21 -96 -22q-230 -3 -232 242q-1 128 63 190.5t167 65.5q23 1 48 -4q19 -3 20 -17q0 -15 -28 -34q-102 -32 -141 -74q-42 -46 -38 -114l2 -35q3 -50 42 -100q26 -33 62 -36q9 -1 28 -4q33 0 66 14q20 5 52 24q31 34 31 151v16q0 4 9.5 6
t28.5 3q27 0 36 -1t9 -8zM573 549l-113 165q-5 7 -4 20q2 26 18 33.5t37 7.5q29 -3 35 -25l55 -192zM302 727q2 17 14 30.5t40 13.5q34 0 53 -38q10 -20 10 -49q0 -10 -2 -35q-5 -26 -17 -49q-6 -12 -19 -18l-18 -6q-14 -7 -18 -7q-21 3 -26 10q-6 12 -6 20q7 -1 31 16
q22 23 33 37q7 10 -18 33q-12 11 -34.5 18t-22.5 24zM500 -64v-115q25 -7 30 -10q13 -6 23 -21q4 -4 -10 -10q-11 -1 -37 -6q-20 0 -44 6q-14 3 -33 14v142q0 12 37 12q34 0 34 -12z" />
    <glyph glyph-name="lozenge" unicode="&#x25ca;" horiz-adv-x="928" 
d="M505 263q0 -7 -1 -13v-11q0 -104 28 -138q12 -6 47 -25q31 -18 68 -18q26 0 42 2q29 3 56.5 38t34.5 59l8 62q0 10 1 14q0 86 -49 129q-35 30 -130 59q-28 19 -28 34q0 6 5 10.5t20.5 7.5t43.5 3q101 0 165 -65.5t64 -190.5q0 -141 -63.5 -191t-186.5 -51q-31 0 -80 24
q-25 16 -83 50q-30 -18 -91 -52q-43 -21 -96 -22q-230 -3 -232 242q-1 128 63 190.5t167 65.5q23 1 48 -4q19 -3 20 -17q0 -15 -28 -34q-102 -32 -141 -74q-42 -46 -38 -114l2 -35q3 -50 42 -100q26 -33 62 -36q9 -1 28 -4q33 0 66 14q20 5 52 24q31 34 31 151v16q0 4 9.5 6
t28.5 3q27 0 36 -1t9 -8zM573 549l-113 165q-5 7 -4 20q2 26 18 33.5t37 7.5q29 -3 35 -25l55 -192zM302 727q2 17 14 30.5t40 13.5q34 0 53 -38q10 -20 10 -49q0 -10 -2 -35q-5 -26 -17 -49q-6 -12 -19 -18l-18 -6q-14 -7 -18 -7q-21 3 -26 10q-6 12 -6 20q7 -1 31 16
q22 23 33 37q7 10 -18 33q-12 11 -34.5 18t-22.5 24zM500 -64v-115q25 -7 30 -10q13 -6 23 -21q4 -4 -10 -10q-11 -1 -37 -6q-20 0 -44 6q-14 3 -33 14v142q0 12 37 12q34 0 34 -12z" />
    <glyph glyph-name="ydieresis" unicode="&#xff;" horiz-adv-x="928" 
d="M505 263q0 -7 -1 -13v-11q0 -104 28 -138q12 -6 47 -25q31 -18 68 -18q26 0 42 2q29 3 56.5 38t34.5 59l8 62q0 10 1 14q0 86 -49 129q-35 30 -130 59q-28 19 -28 34q0 6 5 10.5t20.5 7.5t43.5 3q101 0 165 -65.5t64 -190.5q0 -141 -63.5 -191t-186.5 -51q-31 0 -80 24
q-25 16 -83 50q-30 -18 -91 -52q-43 -21 -96 -22q-230 -3 -232 242q-1 128 63 190.5t167 65.5q23 1 48 -4q19 -3 20 -17q0 -15 -28 -34q-102 -32 -141 -74q-42 -46 -38 -114l2 -35q3 -50 42 -100q26 -33 62 -36q9 -1 28 -4q33 0 66 14q20 5 52 24q31 34 31 151v16q0 4 9.5 6
t28.5 3q27 0 36 -1t9 -8zM355 708q-24 -6 -36 -17q-25 -23 -18 -33q11 -14 33 -37q13 -13 31 -16q0 -8 -6 -20q-5 -7 -26 -10q-4 0 -18 7l-18 6q-13 6 -19 18q-12 23 -17 49q-1 13 -2 35q0 57 35 78q15 9 28 9q28 0 40 -13.5t14 -30.5q0 -17 -21 -25zM543 555l-113 165
q-5 7 -4 20q2 26 18 33.5t37 7.5q29 -3 35 -25l55 -192zM500 -64v-115q25 -7 30 -10q13 -6 23 -21q4 -4 -10 -10q-11 -1 -37 -6q-20 0 -44 6q-14 3 -33 14v142q0 12 37 12q34 0 34 -12z" />
    <glyph glyph-name="ydieresis" unicode="&#x428;" horiz-adv-x="928" 
d="M505 263q0 -7 -1 -13v-11q0 -104 28 -138q12 -6 47 -25q31 -18 68 -18q26 0 42 2q29 3 56.5 38t34.5 59l8 62q0 10 1 14q0 86 -49 129q-35 30 -130 59q-28 19 -28 34q0 6 5 10.5t20.5 7.5t43.5 3q101 0 165 -65.5t64 -190.5q0 -141 -63.5 -191t-186.5 -51q-31 0 -80 24
q-25 16 -83 50q-30 -18 -91 -52q-43 -21 -96 -22q-230 -3 -232 242q-1 128 63 190.5t167 65.5q23 1 48 -4q19 -3 20 -17q0 -15 -28 -34q-102 -32 -141 -74q-42 -46 -38 -114l2 -35q3 -50 42 -100q26 -33 62 -36q9 -1 28 -4q33 0 66 14q20 5 52 24q31 34 31 151v16q0 4 9.5 6
t28.5 3q27 0 36 -1t9 -8zM355 708q-24 -6 -36 -17q-25 -23 -18 -33q11 -14 33 -37q13 -13 31 -16q0 -8 -6 -20q-5 -7 -26 -10q-4 0 -18 7l-18 6q-13 6 -19 18q-12 23 -17 49q-1 13 -2 35q0 57 35 78q15 9 28 9q28 0 40 -13.5t14 -30.5q0 -17 -21 -25zM543 555l-113 165
q-5 7 -4 20q2 26 18 33.5t37 7.5q29 -3 35 -25l55 -192zM500 -64v-115q25 -7 30 -10q13 -6 23 -21q4 -4 -10 -10q-11 -1 -37 -6q-20 0 -44 6q-14 3 -33 14v142q0 12 37 12q34 0 34 -12z" />
    <glyph glyph-name="Ydieresis" unicode="&#x178;" horiz-adv-x="928" 
d="M505 263q0 -7 -1 -13v-11q0 -104 28 -138q12 -6 47 -25q31 -18 68 -18q26 0 42 2q29 3 56.5 38t34.5 59l8 62q0 10 1 14q0 86 -49 129q-35 30 -130 59q-28 19 -28 34q0 6 5 10.5t20.5 7.5t43.5 3q101 0 165 -65.5t64 -190.5q0 -141 -63.5 -191t-186.5 -51q-31 0 -80 24
q-25 16 -83 50q-30 -18 -91 -52q-43 -21 -96 -22q-230 -3 -232 242q-1 128 63 190.5t167 65.5q23 1 48 -4q19 -3 20 -17q0 -15 -28 -34q-102 -32 -141 -74q-42 -46 -38 -114l2 -35q3 -50 42 -100q26 -33 62 -36q9 -1 28 -4q33 0 66 14q20 5 52 24q31 34 31 151v16q0 4 9.5 6
t28.5 3q27 0 36 -1t9 -8zM326 796q6 -16 10 -21q6 -9 17 -16q26 -16 39 -16q14 2 25 5q21 6 43 19q52 33 75 32q82 -2 109 -75l-22 -36q-25 53 -86 53q-12 0 -23 -6q-10 -1 -42 -14q-26 -15 -47 -24q-30 -13 -50 -13q-14 0 -24 7.5t-21 15.5q-34 25 -43 49zM420 665
q1 6 12.5 19t41.5 13q17 0 28 -7q9 -3 25 -19q10 -20 10 -59q-1 -7 -2 -25q-2 -8 -6 -13q-7 -8 -11 -16q-6 -12 -19 -18l-18 -6q-14 -7 -18 -7q-21 3 -26 10q-6 12 -6 20q7 -1 31 16q9 10 16 12.5t10.5 7t1.5 18.5t-7 18q-11 10 -39 17q-24 9 -24 19zM500 -64v-115
q25 -7 30 -10q13 -6 23 -21q4 -4 -10 -10q-11 -1 -37 -6q-20 0 -44 6q-14 3 -33 14v142q0 12 37 12q34 0 34 -12z" />
    <glyph glyph-name="Ydieresis" unicode="&#x429;" horiz-adv-x="928" 
d="M505 263q0 -7 -1 -13v-11q0 -104 28 -138q12 -6 47 -25q31 -18 68 -18q26 0 42 2q29 3 56.5 38t34.5 59l8 62q0 10 1 14q0 86 -49 129q-35 30 -130 59q-28 19 -28 34q0 6 5 10.5t20.5 7.5t43.5 3q101 0 165 -65.5t64 -190.5q0 -141 -63.5 -191t-186.5 -51q-31 0 -80 24
q-25 16 -83 50q-30 -18 -91 -52q-43 -21 -96 -22q-230 -3 -232 242q-1 128 63 190.5t167 65.5q23 1 48 -4q19 -3 20 -17q0 -15 -28 -34q-102 -32 -141 -74q-42 -46 -38 -114l2 -35q3 -50 42 -100q26 -33 62 -36q9 -1 28 -4q33 0 66 14q20 5 52 24q31 34 31 151v16q0 4 9.5 6
t28.5 3q27 0 36 -1t9 -8zM326 796q6 -16 10 -21q6 -9 17 -16q26 -16 39 -16q14 2 25 5q21 6 43 19q52 33 75 32q82 -2 109 -75l-22 -36q-25 53 -86 53q-12 0 -23 -6q-10 -1 -42 -14q-26 -15 -47 -24q-30 -13 -50 -13q-14 0 -24 7.5t-21 15.5q-34 25 -43 49zM420 665
q1 6 12.5 19t41.5 13q17 0 28 -7q9 -3 25 -19q10 -20 10 -59q-1 -7 -2 -25q-2 -8 -6 -13q-7 -8 -11 -16q-6 -12 -19 -18l-18 -6q-14 -7 -18 -7q-21 3 -26 10q-6 12 -6 20q7 -1 31 16q9 10 16 12.5t10.5 7t1.5 18.5t-7 18q-11 10 -39 17q-24 9 -24 19zM500 -64v-115
q25 -7 30 -10q13 -6 23 -21q4 -4 -10 -10q-11 -1 -37 -6q-20 0 -44 6q-14 3 -33 14v142q0 12 37 12q34 0 34 -12z" />
    <glyph glyph-name="fraction" unicode="&#x42a;" horiz-adv-x="928" 
d="M505 263q0 -7 -1 -13v-11q0 -104 28 -138q12 -6 47 -25q31 -18 68 -18q26 0 42 2q29 3 56.5 38t34.5 59l8 62q0 10 1 14q0 86 -49 129q-35 30 -130 59q-28 19 -28 34q0 6 5 10.5t20.5 7.5t43.5 3q101 0 165 -65.5t64 -190.5q0 -141 -63.5 -191t-186.5 -51q-31 0 -80 24
q-25 16 -83 50q-30 -18 -91 -52q-43 -21 -96 -22q-230 -3 -232 242q-1 128 63 190.5t167 65.5q23 1 48 -4q19 -3 20 -17q0 -15 -28 -34q-102 -32 -141 -74q-42 -46 -38 -114l2 -35q3 -50 42 -100q26 -33 62 -36q9 -1 28 -4q33 0 66 14q20 5 52 24q31 34 31 151v16q0 4 9.5 6
t28.5 3q27 0 36 -1t9 -8zM629 756q-8 -24 -43 -49q-30 -21 -63 -21q-20 0 -77 33q-18 6 -44 16q-11 6 -23 6q-61 0 -86 -53l-22 36q27 73 109 75q21 1 73 -30.5t70 -33.5q26 0 50.5 16.5t33.5 40.5zM471 646q-28 -7 -39 -17q-5 -4 -7 -18t1.5 -18.5t10.5 -7t16 -12.5
q13 -13 31 -16q0 -8 -6 -20q-5 -7 -26 -10q-4 0 -18 7l-18 6q-13 6 -19 18q-7 7 -17 29q0 8 -2 25q0 39 10 59q3 5 25 19q15 9 28 9q29 0 41 -14q6 -4 13 -20q0 -10 -24 -19zM500 -64v-115q25 -7 30 -10q13 -6 23 -21q4 -4 -10 -10q-11 -1 -37 -6q-20 0 -44 6q-14 3 -33 14
v142q0 12 37 12q34 0 34 -12z" />
    <glyph glyph-name="fraction" unicode="&#x2215;" horiz-adv-x="928" 
d="M505 263q0 -7 -1 -13v-11q0 -104 28 -138q12 -6 47 -25q31 -18 68 -18q26 0 42 2q29 3 56.5 38t34.5 59l8 62q0 10 1 14q0 86 -49 129q-35 30 -130 59q-28 19 -28 34q0 6 5 10.5t20.5 7.5t43.5 3q101 0 165 -65.5t64 -190.5q0 -141 -63.5 -191t-186.5 -51q-31 0 -80 24
q-25 16 -83 50q-30 -18 -91 -52q-43 -21 -96 -22q-230 -3 -232 242q-1 128 63 190.5t167 65.5q23 1 48 -4q19 -3 20 -17q0 -15 -28 -34q-102 -32 -141 -74q-42 -46 -38 -114l2 -35q3 -50 42 -100q26 -33 62 -36q9 -1 28 -4q33 0 66 14q20 5 52 24q31 34 31 151v16q0 4 9.5 6
t28.5 3q27 0 36 -1t9 -8zM629 756q-8 -24 -43 -49q-30 -21 -63 -21q-20 0 -77 33q-18 6 -44 16q-11 6 -23 6q-61 0 -86 -53l-22 36q27 73 109 75q21 1 73 -30.5t70 -33.5q26 0 50.5 16.5t33.5 40.5zM471 646q-28 -7 -39 -17q-5 -4 -7 -18t1.5 -18.5t10.5 -7t16 -12.5
q13 -13 31 -16q0 -8 -6 -20q-5 -7 -26 -10q-4 0 -18 7l-18 6q-13 6 -19 18q-7 7 -17 29q0 8 -2 25q0 39 10 59q3 5 25 19q15 9 28 9q29 0 41 -14q6 -4 13 -20q0 -10 -24 -19zM500 -64v-115q25 -7 30 -10q13 -6 23 -21q4 -4 -10 -10q-11 -1 -37 -6q-20 0 -44 6q-14 3 -33 14
v142q0 12 37 12q34 0 34 -12z" />
    <glyph glyph-name="afii10045" unicode="&#x42b;" horiz-adv-x="274" 
d="M180 104q6 -22 33 -41q13 -9 28 -24q0 -20 -28 -35q-24 -13 -64 -14t-50 84q-4 30 -5 119v56q0 -9 1 57q1 62 -4 97q-8 21 -19 65q0 11 17 17q20 3 31 6.5t18 3.5q16 0 23 -12.5t10 -17t5 -56.5q1 -35 1 -81v-181q0 -33 3 -43zM91 558l55 192q6 22 35 25q21 0 37 -7.5
t18 -33.5q1 -13 -4 -20l-113 -165z" />
    <glyph glyph-name="afii10045" unicode="&#xf0db;" horiz-adv-x="274" 
d="M180 104q6 -22 33 -41q13 -9 28 -24q0 -20 -28 -35q-24 -13 -64 -14t-50 84q-4 30 -5 119v56q0 -9 1 57q1 62 -4 97q-8 21 -19 65q0 11 17 17q20 3 31 6.5t18 3.5q16 0 23 -12.5t10 -17t5 -56.5q1 -35 1 -81v-181q0 -33 3 -43zM91 558l55 192q6 22 35 25q21 0 37 -7.5
t18 -33.5q1 -13 -4 -20l-113 -165z" />
    <glyph glyph-name="guilsinglleft" unicode="&#x42c;" horiz-adv-x="274" 
d="M181 104q6 -22 33 -41q13 -9 28 -24q0 -20 -28 -35q-24 -13 -64 -14t-50 84q-4 30 -5 119v56q0 -9 1 57q1 62 -4 97q-8 21 -19 65q0 11 17 17q20 3 31 6.5t18 3.5q16 0 23 -12.5t10 -17t5 -56.5q1 -35 1 -81v-181q0 -33 3 -43zM110 549l-113 165q-5 7 -4 20q2 26 18 33.5
t37 7.5q29 -3 35 -25l55 -192z" />
    <glyph glyph-name="guilsinglright" unicode="&#x42d;" horiz-adv-x="274" 
d="M180 104q6 -22 33 -41q13 -9 28 -24q0 -20 -28 -35q-24 -13 -64 -14t-50 84q-4 30 -5 119v56q0 -9 1 57q1 62 -4 97q-8 21 -19 65q0 11 17 17q20 3 31 6.5t18 3.5q16 0 23 -12.5t10 -17t5 -56.5q1 -35 1 -81v-181q0 -33 3 -43zM311 716q-12 -34 -41.5 -56t-64.5 -22
q-20 0 -77 33q-52 30 -67 30q-61 0 -86 -53l-22 41q27 73 109 75q21 1 73 -30.5t70 -33.5q26 0 50.5 16.5t33.5 40.5z" />
    <glyph glyph-name="fi" unicode="&#x42e;" horiz-adv-x="274" 
d="M180 104q6 -22 33 -41q13 -9 28 -24q0 -20 -28 -35q-24 -13 -64 -14t-50 84q-4 30 -5 119v56q0 -9 1 57q1 62 -4 97q-8 21 -19 65q0 11 17 17q20 3 31 6.5t18 3.5q16 0 23 -12.5t10 -17t5 -56.5q1 -35 1 -81v-181q0 -33 3 -43zM58 727q2 17 14 30.5t40 13.5q34 0 53 -38
q10 -20 10 -49q-1 -11 -2 -35q-5 -26 -17 -49q-6 -12 -19 -18l-18 -6q-14 -7 -18 -7q-21 3 -26 10q-6 12 -6 20q7 -1 31 16q22 23 33 37q7 9 -18 33q-12 11 -34.5 17.5t-22.5 24.5z" />
    <glyph glyph-name="fi" unicode="&#xfb01;" horiz-adv-x="274" 
d="M180 104q6 -22 33 -41q13 -9 28 -24q0 -20 -28 -35q-24 -13 -64 -14t-50 84q-4 30 -5 119v56q0 -9 1 57q1 62 -4 97q-8 21 -19 65q0 11 17 17q20 3 31 6.5t18 3.5q16 0 23 -12.5t10 -17t5 -56.5q1 -35 1 -81v-181q0 -33 3 -43zM58 727q2 17 14 30.5t40 13.5q34 0 53 -38
q10 -20 10 -49q-1 -11 -2 -35q-5 -26 -17 -49q-6 -12 -19 -18l-18 -6q-14 -7 -18 -7q-21 3 -26 10q-6 12 -6 20q7 -1 31 16q22 23 33 37q7 9 -18 33q-12 11 -34.5 17.5t-22.5 24.5z" />
    <glyph glyph-name="fl" unicode="&#x42f;" horiz-adv-x="274" 
d="M180 104q6 -22 33 -41q13 -9 28 -24q0 -20 -28 -35q-24 -13 -64 -14t-50 84q-4 30 -5 119v56q0 -9 1 57q1 62 -4 97q-8 21 -19 65q0 11 17 17q20 3 31 6.5t18 3.5q16 0 23 -12.5t10 -17t5 -56.5q1 -35 1 -81v-181q0 -33 3 -43zM153 702q-24 -6 -36 -17q-25 -24 -18 -33
q11 -14 33 -37q13 -13 31 -16q0 -8 -6 -20q-5 -7 -26 -10q-4 0 -18 7l-18 6q-13 6 -19 18q-12 23 -17 49q-1 12 -2 35q0 56 35 78q15 9 28 9q28 0 40 -13.5t14 -30.5q0 -18 -21 -25z" />
    <glyph glyph-name="fl" unicode="&#xfb02;" horiz-adv-x="274" 
d="M180 104q6 -22 33 -41q13 -9 28 -24q0 -20 -28 -35q-24 -13 -64 -14t-50 84q-4 30 -5 119v56q0 -9 1 57q1 62 -4 97q-8 21 -19 65q0 11 17 17q20 3 31 6.5t18 3.5q16 0 23 -12.5t10 -17t5 -56.5q1 -35 1 -81v-181q0 -33 3 -43zM153 702q-24 -6 -36 -17q-25 -24 -18 -33
q11 -14 33 -37q13 -13 31 -16q0 -8 -6 -20q-5 -7 -26 -10q-4 0 -18 7l-18 6q-13 6 -19 18q-12 23 -17 49q-1 12 -2 35q0 56 35 78q15 9 28 9q28 0 40 -13.5t14 -30.5q0 -18 -21 -25z" />
    <glyph glyph-name="daggerdbl" unicode="&#x430;" horiz-adv-x="274" 
d="M180 104q6 -22 33 -41q13 -9 28 -24q0 -20 -28 -35q-24 -13 -64 -14t-50 84q-4 30 -5 119v56q0 -9 1 57q1 62 -4 97q-8 21 -19 65q0 11 17 17q20 3 31 6.5t18 3.5q16 0 23 -12.5t10 -17t5 -56.5q1 -35 1 -81v-181q0 -33 3 -43zM111 558l55 192q6 22 35 25q21 0 37 -7.5
t18 -33.5q1 -13 -4 -20l-113 -165zM-22 727q2 17 14 30.5t40 13.5q34 0 53 -38q10 -20 10 -49q-1 -11 -2 -35q-5 -26 -17 -49q-6 -12 -19 -18l-18 -6q-14 -7 -18 -7q-21 3 -26 10q-6 12 -6 20q7 -1 31 16q22 23 33 37q7 9 -18 33q-12 11 -34.5 17.5t-22.5 24.5z" />
    <glyph glyph-name="periodcentered" unicode="&#x431;" horiz-adv-x="274" 
d="M180 104q6 -22 33 -41q13 -9 28 -24q0 -20 -28 -35q-24 -13 -64 -14t-50 84q-4 30 -5 119v56q0 -9 1 57q1 62 -4 97q-8 21 -19 65q0 11 17 17q20 3 31 6.5t18 3.5q16 0 23 -12.5t10 -17t5 -56.5q1 -35 1 -81v-181q0 -33 3 -43zM21 702q-24 -6 -36 -17q-25 -24 -18 -33
q11 -14 33 -37q13 -13 31 -16q0 -8 -6 -20q-5 -7 -26 -10q-4 0 -18 7l-18 6q-13 6 -19 18q-12 23 -17 49q-1 12 -2 35q0 56 35 78q15 9 28 9q28 0 40 -13.5t14 -30.5q0 -18 -21 -25zM131 558l55 192q6 22 35 25q21 0 37 -7.5t18 -33.5q1 -13 -4 -20l-113 -165z" />
    <glyph glyph-name="quotesinglbase" unicode="&#x432;" horiz-adv-x="274" 
d="M180 104q6 -22 33 -41q13 -9 28 -24q0 -20 -28 -35q-24 -13 -64 -14t-50 84q-4 30 -5 119v56q0 -9 1 57q1 62 -4 97q-8 21 -19 65q0 11 17 17q20 3 31 6.5t18 3.5q16 0 23 -12.5t10 -17t5 -56.5q1 -35 1 -81v-181q0 -33 3 -43zM229 549l-113 165q-5 7 -4 20q2 26 18 33.5
t37 7.5q29 -3 35 -25l55 -192zM-42 727q2 17 14 30.5t40 13.5q34 0 53 -38q10 -20 10 -49q-1 -11 -2 -35q-5 -26 -17 -49q-6 -12 -19 -18l-18 -6q-14 -7 -18 -7q-21 3 -26 10q-6 12 -6 20q7 -1 31 16q22 23 33 37q7 9 -18 33q-12 11 -34.5 17.5t-22.5 24.5z" />
    <glyph glyph-name="quotedblbase" unicode="&#x433;" horiz-adv-x="274" 
d="M180 104q6 -22 33 -41q13 -9 28 -24q0 -20 -28 -35q-24 -13 -64 -14t-50 84q-4 30 -5 119v56q0 -9 1 57q1 62 -4 97q-8 21 -19 65q0 11 17 17q20 3 31 6.5t18 3.5q16 0 23 -12.5t10 -17t5 -56.5q1 -35 1 -81v-181q0 -33 3 -43zM11 702q-24 -6 -36 -17q-25 -24 -18 -33
q11 -14 33 -37q13 -13 31 -16q0 -8 -6 -20q-5 -7 -26 -10q-4 0 -18 7l-18 6q-13 6 -19 18q-12 23 -17 49q-1 12 -2 35q0 56 35 78q15 9 28 9q28 0 40 -13.5t14 -30.5q0 -18 -21 -25zM199 549l-113 165q-5 7 -4 20q2 26 18 33.5t37 7.5q29 -3 35 -25l55 -192z" />
    <glyph glyph-name="perthousand" unicode="&#x434;" horiz-adv-x="274" 
d="M180 104q6 -22 33 -41q13 -9 28 -24q0 -20 -28 -35q-24 -13 -64 -14t-50 84q-4 30 -5 119v56q0 -9 1 57q1 62 -4 97q-8 21 -19 65q0 11 17 17q20 3 31 6.5t18 3.5q16 0 23 -12.5t10 -17t5 -56.5q1 -35 1 -81v-181q0 -33 3 -43zM-19 812q6 -16 10 -21q5 -9 17 -16
q26 -16 39 -16q14 1 25 4q21 6 43 20q52 33 75 32q82 -2 109 -75l-22 -36q-25 53 -86 53q-12 0 -23 -6q-10 -1 -42 -14q-26 -15 -47 -24q-30 -13 -50 -13q-14 0 -24 7.5t-21 15.5q-34 24 -43 49zM75 681q1 6 12.5 19t41.5 13q17 0 28 -7q9 -3 25 -19q10 -20 10 -59
q-1 -8 -2 -25q-2 -8 -6 -13q-7 -8 -11 -16q-6 -12 -19 -18l-18 -6q-14 -7 -18 -7q-21 3 -26 10q-6 12 -6 20q7 -1 31 16q9 9 16 12t10.5 7.5t1.5 18.5q-2 13 -7 18q-11 10 -39 17q-24 9 -24 19z" />
    <glyph glyph-name="Acircumflex" unicode="&#xc2;" horiz-adv-x="274" 
d="M180 104q6 -22 33 -41q13 -9 28 -24q0 -20 -28 -35q-24 -13 -64 -14t-50 84q-4 30 -5 119v56q0 -9 1 57q1 62 -4 97q-8 21 -19 65q0 11 17 17q20 3 31 6.5t18 3.5q16 0 23 -12.5t10 -17t5 -56.5q1 -35 1 -81v-181q0 -33 3 -43zM311 766q-9 -25 -43 -49q-30 -21 -63 -21
q-20 0 -77 33q-18 6 -44 16q-11 6 -23 6q-61 0 -86 -53l-22 36q27 73 109 75q21 1 73 -30.5t70 -33.5q26 0 50.5 16.5t33.5 40.5zM153 656q-28 -7 -39 -17q-5 -5 -7 -18q-2 -14 1.5 -18.5t10.5 -7.5t16 -12q13 -13 31 -16q0 -8 -6 -20q-5 -7 -26 -10q-4 0 -18 7l-18 6
q-13 6 -19 18q-7 7 -17 29q-1 7 -2 25q0 39 10 59q3 5 25 19q15 9 28 9q28 0 41 -14q6 -5 13 -20q0 -10 -24 -19z" />
    <glyph glyph-name="Acircumflex" unicode="&#x435;" horiz-adv-x="274" 
d="M180 104q6 -22 33 -41q13 -9 28 -24q0 -20 -28 -35q-24 -13 -64 -14t-50 84q-4 30 -5 119v56q0 -9 1 57q1 62 -4 97q-8 21 -19 65q0 11 17 17q20 3 31 6.5t18 3.5q16 0 23 -12.5t10 -17t5 -56.5q1 -35 1 -81v-181q0 -33 3 -43zM311 766q-9 -25 -43 -49q-30 -21 -63 -21
q-20 0 -77 33q-18 6 -44 16q-11 6 -23 6q-61 0 -86 -53l-22 36q27 73 109 75q21 1 73 -30.5t70 -33.5q26 0 50.5 16.5t33.5 40.5zM153 656q-28 -7 -39 -17q-5 -5 -7 -18q-2 -14 1.5 -18.5t10.5 -7.5t16 -12q13 -13 31 -16q0 -8 -6 -20q-5 -7 -26 -10q-4 0 -18 7l-18 6
q-13 6 -19 18q-7 7 -17 29q-1 7 -2 25q0 39 10 59q3 5 25 19q15 9 28 9q28 0 41 -14q6 -5 13 -20q0 -10 -24 -19z" />
    <glyph glyph-name="Ecircumflex" unicode="&#xca;" horiz-adv-x="555" 
d="M228 3q-69 0 -104 72q-21 44 -33 133l-19 140q-7 48 -25 60t-22 23q-5 19 12 39.5t53 20.5q24 0 47 -24q9 -9 19 -143q13 -154 15 -167q13 -71 41 -81q22 -8 45 -12q8 -1 28 -2q25 -1 64.5 13t54.5 119q6 40 9 142q2 74 7 94q13 61 58 62q32 1 49 -17t18 -37
q1 -17 -25 -30q-15 -8 -19 -23q-7 -29 -22 -164q-11 -101 -39.5 -159.5t-99.5 -58.5h-112zM256 558l55 192q6 22 35 25q21 0 37 -7.5t18 -33.5q1 -13 -4 -20l-113 -165z" />
    <glyph glyph-name="Ecircumflex" unicode="&#x436;" horiz-adv-x="555" 
d="M228 3q-69 0 -104 72q-21 44 -33 133l-19 140q-7 48 -25 60t-22 23q-5 19 12 39.5t53 20.5q24 0 47 -24q9 -9 19 -143q13 -154 15 -167q13 -71 41 -81q22 -8 45 -12q8 -1 28 -2q25 -1 64.5 13t54.5 119q6 40 9 142q2 74 7 94q13 61 58 62q32 1 49 -17t18 -37
q1 -17 -25 -30q-15 -8 -19 -23q-7 -29 -22 -164q-11 -101 -39.5 -159.5t-99.5 -58.5h-112zM256 558l55 192q6 22 35 25q21 0 37 -7.5t18 -33.5q1 -13 -4 -20l-113 -165z" />
    <glyph glyph-name="Aacute" unicode="&#xc1;" horiz-adv-x="555" 
d="M228 3q-69 0 -104 72q-21 44 -33 133l-19 140q-7 48 -25 60t-22 23q-5 19 12 39.5t53 20.5q24 0 47 -24q9 -9 19 -143q13 -154 15 -167q13 -71 41 -81q22 -8 45 -12q8 -1 28 -2q25 -1 64.5 13t54.5 119q6 40 9 142q2 74 7 94q13 61 58 62q32 1 49 -17t18 -37
q1 -17 -25 -30q-15 -8 -19 -23q-7 -29 -22 -164q-11 -101 -39.5 -159.5t-99.5 -58.5h-112zM284 549l-113 165q-5 7 -4 20q2 26 18 33.5t37 7.5q29 -3 35 -25l55 -192z" />
    <glyph glyph-name="Aacute" unicode="&#x437;" horiz-adv-x="555" 
d="M228 3q-69 0 -104 72q-21 44 -33 133l-19 140q-7 48 -25 60t-22 23q-5 19 12 39.5t53 20.5q24 0 47 -24q9 -9 19 -143q13 -154 15 -167q13 -71 41 -81q22 -8 45 -12q8 -1 28 -2q25 -1 64.5 13t54.5 119q6 40 9 142q2 74 7 94q13 61 58 62q32 1 49 -17t18 -37
q1 -17 -25 -30q-15 -8 -19 -23q-7 -29 -22 -164q-11 -101 -39.5 -159.5t-99.5 -58.5h-112zM284 549l-113 165q-5 7 -4 20q2 26 18 33.5t37 7.5q29 -3 35 -25l55 -192z" />
    <glyph glyph-name="Edieresis" unicode="&#xcb;" horiz-adv-x="555" 
d="M228 3q-69 0 -104 72q-21 44 -33 133l-19 140q-7 48 -25 60t-22 23q-5 19 12 39.5t53 20.5q24 0 47 -24q9 -9 19 -143q13 -154 15 -167q13 -71 41 -81q22 -8 45 -12q8 -1 28 -2q25 -1 64.5 13t54.5 119q6 40 9 142q2 74 7 94q13 61 58 62q32 1 49 -17t18 -37
q1 -17 -25 -30q-15 -8 -19 -23q-7 -29 -22 -164q-11 -101 -39.5 -159.5t-99.5 -58.5h-112zM466 656q-12 -34 -41.5 -56t-64.5 -22q-20 0 -77 33q-52 30 -67 30q-61 0 -86 -53l-22 41q27 73 109 75q21 1 73 -30.5t70 -33.5q26 0 50.5 16.5t33.5 40.5z" />
    <glyph glyph-name="Edieresis" unicode="&#x438;" horiz-adv-x="555" 
d="M228 3q-69 0 -104 72q-21 44 -33 133l-19 140q-7 48 -25 60t-22 23q-5 19 12 39.5t53 20.5q24 0 47 -24q9 -9 19 -143q13 -154 15 -167q13 -71 41 -81q22 -8 45 -12q8 -1 28 -2q25 -1 64.5 13t54.5 119q6 40 9 142q2 74 7 94q13 61 58 62q32 1 49 -17t18 -37
q1 -17 -25 -30q-15 -8 -19 -23q-7 -29 -22 -164q-11 -101 -39.5 -159.5t-99.5 -58.5h-112zM466 656q-12 -34 -41.5 -56t-64.5 -22q-20 0 -77 33q-52 30 -67 30q-61 0 -86 -53l-22 41q27 73 109 75q21 1 73 -30.5t70 -33.5q26 0 50.5 16.5t33.5 40.5z" />
    <glyph glyph-name="Egrave" unicode="&#xc8;" horiz-adv-x="555" 
d="M228 3q-69 0 -104 72q-21 44 -33 133l-19 140q-7 48 -25 60t-22 23q-5 19 12 39.5t53 20.5q24 0 47 -24q9 -9 19 -143q13 -154 15 -167q13 -71 41 -81q22 -8 45 -12q8 -1 28 -2q25 -1 64.5 13t54.5 119q6 40 9 142q2 74 7 94q13 61 58 62q32 1 49 -17t18 -37
q1 -17 -25 -30q-15 -8 -19 -23q-7 -29 -22 -164q-11 -101 -39.5 -159.5t-99.5 -58.5h-112zM223 727q2 17 14 30.5t40 13.5q34 0 53 -38q10 -20 10 -49q-1 -11 -2 -35q-5 -26 -17 -49q-6 -12 -19 -18l-18 -6q-14 -7 -18 -7q-21 3 -26 10q-6 12 -6 20q7 -1 31 16q22 23 33 37
q7 9 -18 33q-12 11 -34.5 17.5t-22.5 24.5z" />
    <glyph glyph-name="Egrave" unicode="&#x439;" horiz-adv-x="555" 
d="M228 3q-69 0 -104 72q-21 44 -33 133l-19 140q-7 48 -25 60t-22 23q-5 19 12 39.5t53 20.5q24 0 47 -24q9 -9 19 -143q13 -154 15 -167q13 -71 41 -81q22 -8 45 -12q8 -1 28 -2q25 -1 64.5 13t54.5 119q6 40 9 142q2 74 7 94q13 61 58 62q32 1 49 -17t18 -37
q1 -17 -25 -30q-15 -8 -19 -23q-7 -29 -22 -164q-11 -101 -39.5 -159.5t-99.5 -58.5h-112zM223 727q2 17 14 30.5t40 13.5q34 0 53 -38q10 -20 10 -49q-1 -11 -2 -35q-5 -26 -17 -49q-6 -12 -19 -18l-18 -6q-14 -7 -18 -7q-21 3 -26 10q-6 12 -6 20q7 -1 31 16q22 23 33 37
q7 9 -18 33q-12 11 -34.5 17.5t-22.5 24.5z" />
    <glyph glyph-name="Iacute" unicode="&#xcd;" horiz-adv-x="555" 
d="M228 3q-69 0 -104 72q-21 44 -33 133l-19 140q-7 48 -25 60t-22 23q-5 19 12 39.5t53 20.5q24 0 47 -24q9 -9 19 -143q13 -154 15 -167q13 -71 41 -81q22 -8 45 -12q8 -1 28 -2q25 -1 64.5 13t54.5 119q6 40 9 142q2 74 7 94q13 61 58 62q32 1 49 -17t18 -37
q1 -17 -25 -30q-15 -8 -19 -23q-7 -29 -22 -164q-11 -101 -39.5 -159.5t-99.5 -58.5h-112zM328 702q-24 -6 -36 -17q-25 -24 -18 -33q11 -14 33 -37q13 -13 31 -16q0 -8 -6 -20q-5 -7 -26 -10q-4 0 -18 7l-18 6q-13 6 -19 18q-12 23 -17 49q-1 12 -2 35q0 56 35 78
q15 9 28 9q28 0 40 -13.5t14 -30.5q0 -18 -21 -25z" />
    <glyph glyph-name="Iacute" unicode="&#x43a;" horiz-adv-x="555" 
d="M228 3q-69 0 -104 72q-21 44 -33 133l-19 140q-7 48 -25 60t-22 23q-5 19 12 39.5t53 20.5q24 0 47 -24q9 -9 19 -143q13 -154 15 -167q13 -71 41 -81q22 -8 45 -12q8 -1 28 -2q25 -1 64.5 13t54.5 119q6 40 9 142q2 74 7 94q13 61 58 62q32 1 49 -17t18 -37
q1 -17 -25 -30q-15 -8 -19 -23q-7 -29 -22 -164q-11 -101 -39.5 -159.5t-99.5 -58.5h-112zM328 702q-24 -6 -36 -17q-25 -24 -18 -33q11 -14 33 -37q13 -13 31 -16q0 -8 -6 -20q-5 -7 -26 -10q-4 0 -18 7l-18 6q-13 6 -19 18q-12 23 -17 49q-1 12 -2 35q0 56 35 78
q15 9 28 9q28 0 40 -13.5t14 -30.5q0 -18 -21 -25z" />
    <glyph glyph-name="Icircumflex" unicode="&#xce;" horiz-adv-x="555" 
d="M228 3q-69 0 -104 72q-21 44 -33 133l-19 140q-7 48 -25 60t-22 23q-5 19 12 39.5t53 20.5q24 0 47 -24q9 -9 19 -143q13 -154 15 -167q13 -71 41 -81q22 -8 45 -12q8 -1 28 -2q25 -1 64.5 13t54.5 119q6 40 9 142q2 74 7 94q13 61 58 62q32 1 49 -17t18 -37
q1 -17 -25 -30q-15 -8 -19 -23q-7 -29 -22 -164q-11 -101 -39.5 -159.5t-99.5 -58.5h-112zM296 558l55 192q6 22 35 25q21 0 37 -7.5t18 -33.5q1 -13 -4 -20l-113 -165zM163 727q2 17 14 30.5t40 13.5q34 0 53 -38q10 -20 10 -49q-1 -11 -2 -35q-5 -26 -17 -49
q-6 -12 -19 -18l-18 -6q-14 -7 -18 -7q-21 3 -26 10q-6 12 -6 20q7 -1 31 16q22 23 33 37q7 9 -18 33q-12 11 -34.5 17.5t-22.5 24.5z" />
    <glyph glyph-name="Icircumflex" unicode="&#x43b;" horiz-adv-x="555" 
d="M228 3q-69 0 -104 72q-21 44 -33 133l-19 140q-7 48 -25 60t-22 23q-5 19 12 39.5t53 20.5q24 0 47 -24q9 -9 19 -143q13 -154 15 -167q13 -71 41 -81q22 -8 45 -12q8 -1 28 -2q25 -1 64.5 13t54.5 119q6 40 9 142q2 74 7 94q13 61 58 62q32 1 49 -17t18 -37
q1 -17 -25 -30q-15 -8 -19 -23q-7 -29 -22 -164q-11 -101 -39.5 -159.5t-99.5 -58.5h-112zM296 558l55 192q6 22 35 25q21 0 37 -7.5t18 -33.5q1 -13 -4 -20l-113 -165zM163 727q2 17 14 30.5t40 13.5q34 0 53 -38q10 -20 10 -49q-1 -11 -2 -35q-5 -26 -17 -49
q-6 -12 -19 -18l-18 -6q-14 -7 -18 -7q-21 3 -26 10q-6 12 -6 20q7 -1 31 16q22 23 33 37q7 9 -18 33q-12 11 -34.5 17.5t-22.5 24.5z" />
    <glyph glyph-name="Idieresis" unicode="&#xcf;" horiz-adv-x="555" 
d="M228 3q-69 0 -104 72q-21 44 -33 133l-19 140q-7 48 -25 60t-22 23q-5 19 12 39.5t53 20.5q24 0 47 -24q9 -9 19 -143q13 -154 15 -167q13 -71 41 -81q22 -8 45 -12q8 -1 28 -2q25 -1 64.5 13t54.5 119q6 40 9 142q2 74 7 94q13 61 58 62q32 1 49 -17t18 -37
q1 -17 -25 -30q-15 -8 -19 -23q-7 -29 -22 -164q-11 -101 -39.5 -159.5t-99.5 -58.5h-112zM216 702q-24 -6 -36 -17q-25 -24 -18 -33q11 -14 33 -37q13 -13 31 -16q0 -8 -6 -20q-5 -7 -26 -10q-4 0 -18 7l-18 6q-13 6 -19 18q-12 23 -17 49q-1 12 -2 35q0 56 35 78
q15 9 28 9q28 0 40 -13.5t14 -30.5q0 -18 -21 -25zM326 558l55 192q6 22 35 25q21 0 37 -7.5t18 -33.5q1 -13 -4 -20l-113 -165z" />
    <glyph glyph-name="Idieresis" unicode="&#x43c;" horiz-adv-x="555" 
d="M228 3q-69 0 -104 72q-21 44 -33 133l-19 140q-7 48 -25 60t-22 23q-5 19 12 39.5t53 20.5q24 0 47 -24q9 -9 19 -143q13 -154 15 -167q13 -71 41 -81q22 -8 45 -12q8 -1 28 -2q25 -1 64.5 13t54.5 119q6 40 9 142q2 74 7 94q13 61 58 62q32 1 49 -17t18 -37
q1 -17 -25 -30q-15 -8 -19 -23q-7 -29 -22 -164q-11 -101 -39.5 -159.5t-99.5 -58.5h-112zM216 702q-24 -6 -36 -17q-25 -24 -18 -33q11 -14 33 -37q13 -13 31 -16q0 -8 -6 -20q-5 -7 -26 -10q-4 0 -18 7l-18 6q-13 6 -19 18q-12 23 -17 49q-1 12 -2 35q0 56 35 78
q15 9 28 9q28 0 40 -13.5t14 -30.5q0 -18 -21 -25zM326 558l55 192q6 22 35 25q21 0 37 -7.5t18 -33.5q1 -13 -4 -20l-113 -165z" />
    <glyph glyph-name="Igrave" unicode="&#xcc;" horiz-adv-x="555" 
d="M228 3q-69 0 -104 72q-21 44 -33 133l-19 140q-7 48 -25 60t-22 23q-5 19 12 39.5t53 20.5q24 0 47 -24q9 -9 19 -143q13 -154 15 -167q13 -71 41 -81q22 -8 45 -12q8 -1 28 -2q25 -1 64.5 13t54.5 119q6 40 9 142q2 74 7 94q13 61 58 62q32 1 49 -17t18 -37
q1 -17 -25 -30q-15 -8 -19 -23q-7 -29 -22 -164q-11 -101 -39.5 -159.5t-99.5 -58.5h-112zM384 549l-113 165q-5 7 -4 20q2 26 18 33.5t37 7.5q29 -3 35 -25l55 -192zM113 727q2 17 14 30.5t40 13.5q34 0 53 -38q10 -20 10 -49q-1 -11 -2 -35q-5 -26 -17 -49q-6 -12 -19 -18
l-18 -6q-14 -7 -18 -7q-21 3 -26 10q-6 12 -6 20q7 -1 31 16q22 23 33 37q7 9 -18 33q-12 11 -34.5 17.5t-22.5 24.5z" />
    <glyph glyph-name="Igrave" unicode="&#x43d;" horiz-adv-x="555" 
d="M228 3q-69 0 -104 72q-21 44 -33 133l-19 140q-7 48 -25 60t-22 23q-5 19 12 39.5t53 20.5q24 0 47 -24q9 -9 19 -143q13 -154 15 -167q13 -71 41 -81q22 -8 45 -12q8 -1 28 -2q25 -1 64.5 13t54.5 119q6 40 9 142q2 74 7 94q13 61 58 62q32 1 49 -17t18 -37
q1 -17 -25 -30q-15 -8 -19 -23q-7 -29 -22 -164q-11 -101 -39.5 -159.5t-99.5 -58.5h-112zM384 549l-113 165q-5 7 -4 20q2 26 18 33.5t37 7.5q29 -3 35 -25l55 -192zM113 727q2 17 14 30.5t40 13.5q34 0 53 -38q10 -20 10 -49q-1 -11 -2 -35q-5 -26 -17 -49q-6 -12 -19 -18
l-18 -6q-14 -7 -18 -7q-21 3 -26 10q-6 12 -6 20q7 -1 31 16q22 23 33 37q7 9 -18 33q-12 11 -34.5 17.5t-22.5 24.5z" />
    <glyph glyph-name="Oacute" unicode="&#xd3;" horiz-adv-x="555" 
d="M228 3q-69 0 -104 72q-21 44 -33 133l-19 140q-7 48 -25 60t-22 23q-5 19 12 39.5t53 20.5q24 0 47 -24q9 -9 19 -143q13 -154 15 -167q13 -71 41 -81q22 -8 45 -12q8 -1 28 -2q25 -1 64.5 13t54.5 119q6 40 9 142q2 74 7 94q13 61 58 62q32 1 49 -17t18 -37
q1 -17 -25 -30q-15 -8 -19 -23q-7 -29 -22 -164q-11 -101 -39.5 -159.5t-99.5 -58.5h-112zM186 702q-24 -6 -36 -17q-25 -24 -18 -33q11 -14 33 -37q13 -13 31 -16q0 -8 -6 -20q-5 -7 -26 -10q-4 0 -18 7l-18 6q-13 6 -19 18q-12 23 -17 49q-1 12 -2 35q0 56 35 78
q15 9 28 9q28 0 40 -13.5t14 -30.5q0 -18 -21 -25zM374 549l-113 165q-5 7 -4 20q2 26 18 33.5t37 7.5q29 -3 35 -25l55 -192z" />
    <glyph glyph-name="Oacute" unicode="&#x43e;" horiz-adv-x="555" 
d="M228 3q-69 0 -104 72q-21 44 -33 133l-19 140q-7 48 -25 60t-22 23q-5 19 12 39.5t53 20.5q24 0 47 -24q9 -9 19 -143q13 -154 15 -167q13 -71 41 -81q22 -8 45 -12q8 -1 28 -2q25 -1 64.5 13t54.5 119q6 40 9 142q2 74 7 94q13 61 58 62q32 1 49 -17t18 -37
q1 -17 -25 -30q-15 -8 -19 -23q-7 -29 -22 -164q-11 -101 -39.5 -159.5t-99.5 -58.5h-112zM186 702q-24 -6 -36 -17q-25 -24 -18 -33q11 -14 33 -37q13 -13 31 -16q0 -8 -6 -20q-5 -7 -26 -10q-4 0 -18 7l-18 6q-13 6 -19 18q-12 23 -17 49q-1 12 -2 35q0 56 35 78
q15 9 28 9q28 0 40 -13.5t14 -30.5q0 -18 -21 -25zM374 549l-113 165q-5 7 -4 20q2 26 18 33.5t37 7.5q29 -3 35 -25l55 -192z" />
    <glyph glyph-name="Ocircumflex" unicode="&#xd4;" horiz-adv-x="555" 
d="M228 3q-69 0 -104 72q-21 44 -33 133l-19 140q-7 48 -25 60t-22 23q-5 19 12 39.5t53 20.5q24 0 47 -24q9 -9 19 -143q13 -154 15 -167q13 -71 41 -81q22 -8 45 -12q8 -1 28 -2q25 -1 64.5 13t54.5 119q6 40 9 142q2 74 7 94q13 61 58 62q32 1 49 -17t18 -37
q1 -17 -25 -30q-15 -8 -19 -23q-7 -29 -22 -164q-11 -101 -39.5 -159.5t-99.5 -58.5h-112zM146 797q6 -16 10 -21q5 -9 17 -16q26 -16 39 -16q14 1 25 4q21 6 43 20q52 33 75 32q82 -2 109 -75l-22 -36q-25 53 -86 53q-12 0 -23 -6q-10 -1 -42 -14q-26 -15 -47 -24
q-30 -13 -50 -13q-14 0 -24 7.5t-21 15.5q-34 24 -43 49zM240 666q1 6 12.5 19t41.5 13q17 0 28 -7q9 -3 25 -19q10 -20 10 -59q-1 -8 -2 -25q-2 -8 -6 -13q-7 -8 -11 -16q-6 -12 -19 -18l-18 -6q-14 -7 -18 -7q-21 3 -26 10q-6 12 -6 20q7 -1 31 16q9 9 16 12t10.5 7.5
t1.5 18.5q-2 13 -7 18q-11 10 -39 17q-24 9 -24 19z" />
    <glyph glyph-name="Ocircumflex" unicode="&#x43f;" horiz-adv-x="555" 
d="M228 3q-69 0 -104 72q-21 44 -33 133l-19 140q-7 48 -25 60t-22 23q-5 19 12 39.5t53 20.5q24 0 47 -24q9 -9 19 -143q13 -154 15 -167q13 -71 41 -81q22 -8 45 -12q8 -1 28 -2q25 -1 64.5 13t54.5 119q6 40 9 142q2 74 7 94q13 61 58 62q32 1 49 -17t18 -37
q1 -17 -25 -30q-15 -8 -19 -23q-7 -29 -22 -164q-11 -101 -39.5 -159.5t-99.5 -58.5h-112zM146 797q6 -16 10 -21q5 -9 17 -16q26 -16 39 -16q14 1 25 4q21 6 43 20q52 33 75 32q82 -2 109 -75l-22 -36q-25 53 -86 53q-12 0 -23 -6q-10 -1 -42 -14q-26 -15 -47 -24
q-30 -13 -50 -13q-14 0 -24 7.5t-21 15.5q-34 24 -43 49zM240 666q1 6 12.5 19t41.5 13q17 0 28 -7q9 -3 25 -19q10 -20 10 -59q-1 -8 -2 -25q-2 -8 -6 -13q-7 -8 -11 -16q-6 -12 -19 -18l-18 -6q-14 -7 -18 -7q-21 3 -26 10q-6 12 -6 20q7 -1 31 16q9 9 16 12t10.5 7.5
t1.5 18.5q-2 13 -7 18q-11 10 -39 17q-24 9 -24 19z" />
    <glyph glyph-name="apple" unicode="&#x440;" horiz-adv-x="555" 
d="M228 3q-69 0 -104 72q-21 44 -33 133l-19 140q-7 48 -25 60t-22 23q-5 19 12 39.5t53 20.5q24 0 47 -24q9 -9 19 -143q13 -154 15 -167q13 -71 41 -81q22 -8 45 -12q8 -1 28 -2q25 -1 64.5 13t54.5 119q6 40 9 142q2 74 7 94q13 61 58 62q32 1 49 -17t18 -37
q1 -17 -25 -30q-15 -8 -19 -23q-7 -29 -22 -164q-11 -101 -39.5 -159.5t-99.5 -58.5h-112zM476 758q-9 -25 -43 -49q-30 -21 -63 -21q-20 0 -77 33q-18 6 -44 16q-11 6 -23 6q-61 0 -86 -53l-22 36q27 73 109 75q21 1 73 -30.5t70 -33.5q26 0 50.5 16.5t33.5 40.5zM318 648
q-28 -7 -39 -17q-5 -5 -7 -18q-2 -14 1.5 -18.5t10.5 -7.5t16 -12q13 -13 31 -16q0 -8 -6 -20q-5 -7 -26 -10q-4 0 -18 7l-18 6q-13 6 -19 18q-7 7 -17 29q-1 7 -2 25q0 39 10 59q3 5 25 19q15 9 28 9q28 0 41 -14q6 -5 13 -20q0 -10 -24 -19z" />
    <glyph glyph-name="Ograve" unicode="&#xd2;" horiz-adv-x="599" 
d="M305 496q110 1 189.5 -70.5t80.5 -173.5t-74.5 -178t-185.5 -76q-112 0 -190.5 70.5t-79.5 173.5q-1 101 74 177t186 77zM120 248q-1 -74 58.5 -128.5t130.5 -54.5q68 0 127 54.5t60 130.5q1 72 -59 127t-130 56q-68 1 -127 -54t-60 -131zM285 558l55 192q6 22 35 25
q21 0 37 -7.5t18 -33.5q1 -13 -4 -20l-113 -165z" />
    <glyph glyph-name="Ograve" unicode="&#x441;" horiz-adv-x="599" 
d="M305 496q110 1 189.5 -70.5t80.5 -173.5t-74.5 -178t-185.5 -76q-112 0 -190.5 70.5t-79.5 173.5q-1 101 74 177t186 77zM120 248q-1 -74 58.5 -128.5t130.5 -54.5q68 0 127 54.5t60 130.5q1 72 -59 127t-130 56q-68 1 -127 -54t-60 -131zM285 558l55 192q6 22 35 25
q21 0 37 -7.5t18 -33.5q1 -13 -4 -20l-113 -165z" />
    <glyph glyph-name="Uacute" unicode="&#xda;" horiz-adv-x="599" 
d="M305 496q110 1 189.5 -70.5t80.5 -173.5t-74.5 -178t-185.5 -76q-112 0 -190.5 70.5t-79.5 173.5q-1 101 74 177t186 77zM120 248q-1 -74 58.5 -128.5t130.5 -54.5q68 0 127 54.5t60 130.5q1 72 -59 127t-130 56q-68 1 -127 -54t-60 -131zM310 549l-113 165q-5 7 -4 20
q2 26 18 33.5t37 7.5q29 -3 35 -25l55 -192z" />
    <glyph glyph-name="Uacute" unicode="&#x442;" horiz-adv-x="599" 
d="M305 496q110 1 189.5 -70.5t80.5 -173.5t-74.5 -178t-185.5 -76q-112 0 -190.5 70.5t-79.5 173.5q-1 101 74 177t186 77zM120 248q-1 -74 58.5 -128.5t130.5 -54.5q68 0 127 54.5t60 130.5q1 72 -59 127t-130 56q-68 1 -127 -54t-60 -131zM310 549l-113 165q-5 7 -4 20
q2 26 18 33.5t37 7.5q29 -3 35 -25l55 -192z" />
    <glyph glyph-name="Ucircumflex" unicode="&#xdb;" horiz-adv-x="274" 
d="M180 104q6 -22 33 -41q13 -9 28 -24q0 -20 -28 -35q-24 -13 -64 -14t-50 84q-4 30 -5 119v56q0 -9 1 57q1 62 -4 97q-8 21 -19 65q0 11 17 17q20 3 31 6.5t18 3.5q16 0 23 -12.5t10 -17t5 -56.5q1 -35 1 -81v-181q0 -33 3 -43zM138 495zM-22 554q0 20 16 36.5t37 16.5
t37 -16.5t16 -36.5q0 -21 -16 -37t-37 -16t-37 16t-16 37zM295 554q0 -21 -16 -37t-37 -16t-37 16t-16 37q0 20 16 36.5t37 16.5t37 -16.5t16 -36.5z" />
    <glyph glyph-name="Ucircumflex" unicode="&#x443;" horiz-adv-x="274" 
d="M180 104q6 -22 33 -41q13 -9 28 -24q0 -20 -28 -35q-24 -13 -64 -14t-50 84q-4 30 -5 119v56q0 -9 1 57q1 62 -4 97q-8 21 -19 65q0 11 17 17q20 3 31 6.5t18 3.5q16 0 23 -12.5t10 -17t5 -56.5q1 -35 1 -81v-181q0 -33 3 -43zM138 495zM-22 554q0 20 16 36.5t37 16.5
t37 -16.5t16 -36.5q0 -21 -16 -37t-37 -16t-37 16t-16 37zM295 554q0 -21 -16 -37t-37 -16t-37 16t-16 37q0 20 16 36.5t37 16.5t37 -16.5t16 -36.5z" />
    <glyph glyph-name="Ugrave" unicode="&#xd9;" horiz-adv-x="599" 
d="M305 496q110 1 189.5 -70.5t80.5 -173.5t-74.5 -178t-185.5 -76q-112 0 -190.5 70.5t-79.5 173.5q-1 101 74 177t186 77zM120 248q-1 -74 58.5 -128.5t130.5 -54.5q68 0 127 54.5t60 130.5q1 72 -59 127t-130 56q-68 1 -127 -54t-60 -131zM249 727q2 17 14 30.5t40 13.5
q34 0 53 -38q10 -20 10 -49q-1 -11 -2 -35q-5 -26 -17 -49q-6 -12 -19 -18l-18 -6q-14 -7 -18 -7q-21 3 -26 10q-6 12 -6 20q7 -1 31 16q22 23 33 37q7 9 -18 33q-12 11 -34.5 17.5t-22.5 24.5z" />
    <glyph glyph-name="Ugrave" unicode="&#x444;" horiz-adv-x="599" 
d="M305 496q110 1 189.5 -70.5t80.5 -173.5t-74.5 -178t-185.5 -76q-112 0 -190.5 70.5t-79.5 173.5q-1 101 74 177t186 77zM120 248q-1 -74 58.5 -128.5t130.5 -54.5q68 0 127 54.5t60 130.5q1 72 -59 127t-130 56q-68 1 -127 -54t-60 -131zM249 727q2 17 14 30.5t40 13.5
q34 0 53 -38q10 -20 10 -49q-1 -11 -2 -35q-5 -26 -17 -49q-6 -12 -19 -18l-18 -6q-14 -7 -18 -7q-21 3 -26 10q-6 12 -6 20q7 -1 31 16q22 23 33 37q7 9 -18 33q-12 11 -34.5 17.5t-22.5 24.5z" />
    <glyph glyph-name="dotlessi" unicode="&#x131;" horiz-adv-x="599" 
d="M305 496q110 1 189.5 -70.5t80.5 -173.5t-74.5 -178t-185.5 -76q-112 0 -190.5 70.5t-79.5 173.5q-1 101 74 177t186 77zM120 248q-1 -74 58.5 -128.5t130.5 -54.5q68 0 127 54.5t60 130.5q1 72 -59 127t-130 56q-68 1 -127 -54t-60 -131zM344 702q-24 -6 -36 -17
q-25 -24 -18 -33q11 -14 33 -37q13 -13 31 -16q0 -8 -6 -20q-5 -7 -26 -10q-4 0 -18 7l-18 6q-13 6 -19 18q-12 23 -17 49q-1 12 -2 35q0 56 35 78q15 9 28 9q28 0 40 -13.5t14 -30.5q0 -18 -21 -25z" />
    <glyph glyph-name="dotlessi" unicode="&#x445;" horiz-adv-x="599" 
d="M305 496q110 1 189.5 -70.5t80.5 -173.5t-74.5 -178t-185.5 -76q-112 0 -190.5 70.5t-79.5 173.5q-1 101 74 177t186 77zM120 248q-1 -74 58.5 -128.5t130.5 -54.5q68 0 127 54.5t60 130.5q1 72 -59 127t-130 56q-68 1 -127 -54t-60 -131zM344 702q-24 -6 -36 -17
q-25 -24 -18 -33q11 -14 33 -37q13 -13 31 -16q0 -8 -6 -20q-5 -7 -26 -10q-4 0 -18 7l-18 6q-13 6 -19 18q-12 23 -17 49q-1 12 -2 35q0 56 35 78q15 9 28 9q28 0 40 -13.5t14 -30.5q0 -18 -21 -25z" />
    <glyph glyph-name="circumflex" unicode="&#x2c6;" horiz-adv-x="599" 
d="M305 496q110 1 189.5 -70.5t80.5 -173.5t-74.5 -178t-185.5 -76q-112 0 -190.5 70.5t-79.5 173.5q-1 101 74 177t186 77zM120 248q-1 -74 58.5 -128.5t130.5 -54.5q68 0 127 54.5t60 130.5q1 72 -59 127t-130 56q-68 1 -127 -54t-60 -131zM322 558l55 192q6 22 35 25
q21 0 37 -7.5t18 -33.5q1 -13 -4 -20l-113 -165zM189 727q2 17 14 30.5t40 13.5q34 0 53 -38q10 -20 10 -49q-1 -11 -2 -35q-5 -26 -17 -49q-6 -12 -19 -18l-18 -6q-14 -7 -18 -7q-21 3 -26 10q-6 12 -6 20q7 -1 31 16q22 23 33 37q7 9 -18 33q-12 11 -34.5 17.5t-22.5 24.5
z" />
    <glyph glyph-name="circumflex" unicode="&#x446;" horiz-adv-x="599" 
d="M305 496q110 1 189.5 -70.5t80.5 -173.5t-74.5 -178t-185.5 -76q-112 0 -190.5 70.5t-79.5 173.5q-1 101 74 177t186 77zM120 248q-1 -74 58.5 -128.5t130.5 -54.5q68 0 127 54.5t60 130.5q1 72 -59 127t-130 56q-68 1 -127 -54t-60 -131zM322 558l55 192q6 22 35 25
q21 0 37 -7.5t18 -33.5q1 -13 -4 -20l-113 -165zM189 727q2 17 14 30.5t40 13.5q34 0 53 -38q10 -20 10 -49q-1 -11 -2 -35q-5 -26 -17 -49q-6 -12 -19 -18l-18 -6q-14 -7 -18 -7q-21 3 -26 10q-6 12 -6 20q7 -1 31 16q22 23 33 37q7 9 -18 33q-12 11 -34.5 17.5t-22.5 24.5
z" />
    <glyph glyph-name="tilde" unicode="&#x2dc;" horiz-adv-x="599" 
d="M305 496q110 1 189.5 -70.5t80.5 -173.5t-74.5 -178t-185.5 -76q-112 0 -190.5 70.5t-79.5 173.5q-1 101 74 177t186 77zM120 248q-1 -74 58.5 -128.5t130.5 -54.5q68 0 127 54.5t60 130.5q1 72 -59 127t-130 56q-68 1 -127 -54t-60 -131zM242 702q-24 -6 -36 -17
q-25 -24 -18 -33q11 -14 33 -37q13 -13 31 -16q0 -8 -6 -20q-5 -7 -26 -10q-4 0 -18 7l-18 6q-13 6 -19 18q-12 23 -17 49q-1 12 -2 35q0 56 35 78q15 9 28 9q28 0 40 -13.5t14 -30.5q0 -18 -21 -25zM352 558l55 192q6 22 35 25q21 0 37 -7.5t18 -33.5q1 -13 -4 -20
l-113 -165z" />
    <glyph glyph-name="tilde" unicode="&#x447;" horiz-adv-x="599" 
d="M305 496q110 1 189.5 -70.5t80.5 -173.5t-74.5 -178t-185.5 -76q-112 0 -190.5 70.5t-79.5 173.5q-1 101 74 177t186 77zM120 248q-1 -74 58.5 -128.5t130.5 -54.5q68 0 127 54.5t60 130.5q1 72 -59 127t-130 56q-68 1 -127 -54t-60 -131zM242 702q-24 -6 -36 -17
q-25 -24 -18 -33q11 -14 33 -37q13 -13 31 -16q0 -8 -6 -20q-5 -7 -26 -10q-4 0 -18 7l-18 6q-13 6 -19 18q-12 23 -17 49q-1 12 -2 35q0 56 35 78q15 9 28 9q28 0 40 -13.5t14 -30.5q0 -18 -21 -25zM352 558l55 192q6 22 35 25q21 0 37 -7.5t18 -33.5q1 -13 -4 -20
l-113 -165z" />
    <glyph glyph-name="macron" unicode="&#xaf;" horiz-adv-x="599" 
d="M305 496q110 1 189.5 -70.5t80.5 -173.5t-74.5 -178t-185.5 -76q-112 0 -190.5 70.5t-79.5 173.5q-1 101 74 177t186 77zM120 248q-1 -74 58.5 -128.5t130.5 -54.5q68 0 127 54.5t60 130.5q1 72 -59 127t-130 56q-68 1 -127 -54t-60 -131zM410 549l-113 165q-5 7 -4 20
q2 26 18 33.5t37 7.5q29 -3 35 -25l55 -192zM139 727q2 17 14 30.5t40 13.5q34 0 53 -38q10 -20 10 -49q-1 -11 -2 -35q-5 -26 -17 -49q-6 -12 -19 -18l-18 -6q-14 -7 -18 -7q-21 3 -26 10q-6 12 -6 20q7 -1 31 16q22 23 33 37q7 9 -18 33q-12 11 -34.5 17.5t-22.5 24.5z
" />
    <glyph glyph-name="macron" unicode="&#x448;" horiz-adv-x="599" 
d="M305 496q110 1 189.5 -70.5t80.5 -173.5t-74.5 -178t-185.5 -76q-112 0 -190.5 70.5t-79.5 173.5q-1 101 74 177t186 77zM120 248q-1 -74 58.5 -128.5t130.5 -54.5q68 0 127 54.5t60 130.5q1 72 -59 127t-130 56q-68 1 -127 -54t-60 -131zM410 549l-113 165q-5 7 -4 20
q2 26 18 33.5t37 7.5q29 -3 35 -25l55 -192zM139 727q2 17 14 30.5t40 13.5q34 0 53 -38q10 -20 10 -49q-1 -11 -2 -35q-5 -26 -17 -49q-6 -12 -19 -18l-18 -6q-14 -7 -18 -7q-21 3 -26 10q-6 12 -6 20q7 -1 31 16q22 23 33 37q7 9 -18 33q-12 11 -34.5 17.5t-22.5 24.5z
" />
    <glyph glyph-name="breve" unicode="&#x2d8;" horiz-adv-x="599" 
d="M305 496q110 1 189.5 -70.5t80.5 -173.5t-74.5 -178t-185.5 -76q-112 0 -190.5 70.5t-79.5 173.5q-1 101 74 177t186 77zM120 248q-1 -74 58.5 -128.5t130.5 -54.5q68 0 127 54.5t60 130.5q1 72 -59 127t-130 56q-68 1 -127 -54t-60 -131zM212 702q-24 -6 -36 -17
q-25 -24 -18 -33q11 -14 33 -37q13 -13 31 -16q0 -8 -6 -20q-5 -7 -26 -10q-4 0 -18 7l-18 6q-13 6 -19 18q-12 23 -17 49q-1 12 -2 35q0 56 35 78q15 9 28 9q28 0 40 -13.5t14 -30.5q0 -18 -21 -25zM400 549l-113 165q-5 7 -4 20q2 26 18 33.5t37 7.5q29 -3 35 -25l55 -192
z" />
    <glyph glyph-name="breve" unicode="&#x449;" horiz-adv-x="599" 
d="M305 496q110 1 189.5 -70.5t80.5 -173.5t-74.5 -178t-185.5 -76q-112 0 -190.5 70.5t-79.5 173.5q-1 101 74 177t186 77zM120 248q-1 -74 58.5 -128.5t130.5 -54.5q68 0 127 54.5t60 130.5q1 72 -59 127t-130 56q-68 1 -127 -54t-60 -131zM212 702q-24 -6 -36 -17
q-25 -24 -18 -33q11 -14 33 -37q13 -13 31 -16q0 -8 -6 -20q-5 -7 -26 -10q-4 0 -18 7l-18 6q-13 6 -19 18q-12 23 -17 49q-1 12 -2 35q0 56 35 78q15 9 28 9q28 0 40 -13.5t14 -30.5q0 -18 -21 -25zM400 549l-113 165q-5 7 -4 20q2 26 18 33.5t37 7.5q29 -3 35 -25l55 -192
z" />
    <glyph glyph-name="dotaccent" unicode="&#x2d9;" horiz-adv-x="574" 
d="M321 496q82 1 134 -27q57 -31 60 -79q2 -28 5 -90q3 -93 5 -324v-144q0 -10 -12 -17q-8 -4 -35 -7q-19 0 -31.5 7t-12.5 17l8 288q2 116 2 176v87q0 25 -49 43q-39 13 -71 14q-26 0 -81.5 -19.5t-54.5 -42.5q2 -19 4 -62q4 -98 5 -217l1 -95q0 -5 -12 -11q-2 -1 -40 -4
q-20 0 -32.5 4t-12.5 13l10 405q1 15 -19 24q-16 7 -33 8q-9 0 -39 -17q0 4 -3 19q27 48 57 51q13 0 41.5 -17t49.5 -15q24 2 75 17q47 15 81 15zM312 -58v-115q25 -7 30 -10q14 -6 23 -21q4 -4 -10 -10q-10 -1 -37 -6q-20 0 -44 6q-14 3 -33 14v142q0 12 37 12q34 0 34 -12
z" />
    <glyph glyph-name="dotaccent" unicode="&#x44a;" horiz-adv-x="574" 
d="M321 496q82 1 134 -27q57 -31 60 -79q2 -28 5 -90q3 -93 5 -324v-144q0 -10 -12 -17q-8 -4 -35 -7q-19 0 -31.5 7t-12.5 17l8 288q2 116 2 176v87q0 25 -49 43q-39 13 -71 14q-26 0 -81.5 -19.5t-54.5 -42.5q2 -19 4 -62q4 -98 5 -217l1 -95q0 -5 -12 -11q-2 -1 -40 -4
q-20 0 -32.5 4t-12.5 13l10 405q1 15 -19 24q-16 7 -33 8q-9 0 -39 -17q0 4 -3 19q27 48 57 51q13 0 41.5 -17t49.5 -15q24 2 75 17q47 15 81 15zM312 -58v-115q25 -7 30 -10q14 -6 23 -21q4 -4 -10 -10q-10 -1 -37 -6q-20 0 -44 6q-14 3 -33 14v142q0 12 37 12q34 0 34 -12
z" />
    <glyph glyph-name="ring" unicode="&#x2da;" horiz-adv-x="560" 
d="M169 480q93 3 218 11q47 6 83 6q29 0 44 -5q8 -3 16 -17q5 -11 7 -28q0 -14 -9 -20q-7 -2 -22 -4q-10 0 -31 -1q-1 0 -45 1l-50 1q-135 4 -193 -3q-29 -4 -46 -41q-12 -26 -12 -63q0 -90 99 -168q33 -25 65 -50q49 -39 54 -55.5t5 -45.5v-28q0 -28 -16 -46
q-10 -11 -72 -35q-74 -29 -83 -34q-34 -18 -58 -18q-34 0 -35 30q-1 35 32 52q15 7 51 13q24 7 72 19q23 5 29 15q3 5 4 23q1 15 -8 28q-4 8 -21 26q-24 25 -84 68q-51 37 -71 66q-30 44 -31 111q-1 75 20 123q24 56 88 69z" />
    <glyph glyph-name="ring" unicode="&#x44b;" horiz-adv-x="560" 
d="M169 480q93 3 218 11q47 6 83 6q29 0 44 -5q8 -3 16 -17q5 -11 7 -28q0 -14 -9 -20q-7 -2 -22 -4q-10 0 -31 -1q-1 0 -45 1l-50 1q-135 4 -193 -3q-29 -4 -46 -41q-12 -26 -12 -63q0 -90 99 -168q33 -25 65 -50q49 -39 54 -55.5t5 -45.5v-28q0 -28 -16 -46
q-10 -11 -72 -35q-74 -29 -83 -34q-34 -18 -58 -18q-34 0 -35 30q-1 35 32 52q15 7 51 13q24 7 72 19q23 5 29 15q3 5 4 23q1 15 -8 28q-4 8 -21 26q-24 25 -84 68q-51 37 -71 66q-30 44 -31 111q-1 75 20 123q24 56 88 69z" />
    <glyph glyph-name="cedilla" unicode="&#xb8;" horiz-adv-x="346" 
d="M246 345v-279l6 -178l-5 -4q-3 0 -15 1.5t-21 2.5h-61q-54 -1 -97 -4l-5 4v25l5 5h35q67 0 72 43q2 18 2 51v333h84z" />
    <glyph glyph-name="cedilla" unicode="&#x44c;" horiz-adv-x="346" 
d="M246 345v-279l6 -178l-5 -4q-3 0 -15 1.5t-21 2.5h-61q-54 -1 -97 -4l-5 4v25l5 5h35q67 0 72 43q2 18 2 51v333h84z" />
    <glyph glyph-name="hungarumlaut" unicode="&#x2dd;" horiz-adv-x="274" 
d="M180 104q6 -22 33 -41q13 -9 28 -24q0 -20 -28 -35q-24 -13 -64 -14t-50 84q-4 30 -5 119v56q0 -9 1 57q1 62 -4 97q-8 21 -19 65q0 11 17 17q20 3 31 6.5t18 3.5q16 0 23 -12.5t10 -17t5 -56.5q1 -35 1 -81v-181q0 -33 3 -43zM138 495zM-22 554q0 20 16 36.5t37 16.5
t37 -16.5t16 -36.5q0 -21 -16 -37t-37 -16t-37 16t-16 37zM295 554q0 -21 -16 -37t-37 -16t-37 16t-16 37q0 20 16 36.5t37 16.5t37 -16.5t16 -36.5zM111 578l55 192q6 22 35 25q21 0 37 -7.5t18 -33.5q1 -13 -4 -20l-113 -165z" />
    <glyph glyph-name="hungarumlaut" unicode="&#x44d;" horiz-adv-x="274" 
d="M180 104q6 -22 33 -41q13 -9 28 -24q0 -20 -28 -35q-24 -13 -64 -14t-50 84q-4 30 -5 119v56q0 -9 1 57q1 62 -4 97q-8 21 -19 65q0 11 17 17q20 3 31 6.5t18 3.5q16 0 23 -12.5t10 -17t5 -56.5q1 -35 1 -81v-181q0 -33 3 -43zM138 495zM-22 554q0 20 16 36.5t37 16.5
t37 -16.5t16 -36.5q0 -21 -16 -37t-37 -16t-37 16t-16 37zM295 554q0 -21 -16 -37t-37 -16t-37 16t-16 37q0 20 16 36.5t37 16.5t37 -16.5t16 -36.5zM111 578l55 192q6 22 35 25q21 0 37 -7.5t18 -33.5q1 -13 -4 -20l-113 -165z" />
    <glyph glyph-name="ogonek" unicode="&#x2db;" horiz-adv-x="274" 
d="M180 104q6 -22 33 -41q13 -9 28 -24q0 -20 -28 -35q-24 -13 -64 -14t-50 84q-4 30 -5 119v56q0 -9 1 57q1 62 -4 97q-8 21 -19 65q0 11 17 17q20 3 31 6.5t18 3.5q16 0 23 -12.5t10 -17t5 -56.5q1 -35 1 -81v-181q0 -33 3 -43zM-22 554q0 20 16 36.5t37 16.5t37 -16.5
t16 -36.5q0 -21 -16 -37t-37 -16t-37 16t-16 37zM295 554q0 -21 -16 -37t-37 -16t-37 16t-16 37q0 20 16 36.5t37 16.5t37 -16.5t16 -36.5zM119 569l-113 165q-5 7 -4 20q2 26 18 33.5t37 7.5q29 -3 35 -25l55 -192zM138 495z" />
    <glyph glyph-name="ogonek" unicode="&#x44e;" horiz-adv-x="274" 
d="M180 104q6 -22 33 -41q13 -9 28 -24q0 -20 -28 -35q-24 -13 -64 -14t-50 84q-4 30 -5 119v56q0 -9 1 57q1 62 -4 97q-8 21 -19 65q0 11 17 17q20 3 31 6.5t18 3.5q16 0 23 -12.5t10 -17t5 -56.5q1 -35 1 -81v-181q0 -33 3 -43zM-22 554q0 20 16 36.5t37 16.5t37 -16.5
t16 -36.5q0 -21 -16 -37t-37 -16t-37 16t-16 37zM295 554q0 -21 -16 -37t-37 -16t-37 16t-16 37q0 20 16 36.5t37 16.5t37 -16.5t16 -36.5zM119 569l-113 165q-5 7 -4 20q2 26 18 33.5t37 7.5q29 -3 35 -25l55 -192zM138 495z" />
  </font>
</defs>
</svg>
